Drama

Knowing 2009 PROPER DVDRip XviD Replicas

  • Download 5x Faster
  • Download torrent
  • Direct Download
  • Rate this torrent +  |  -
Knowing 2009 PROPER DVDRip XviD Replicas

Free and Direct Download with Usenet.nl 300GB+ free


Torrent info

Name:Knowing 2009 PROPER DVDRip XviD Replicas

Total Size: 692.33 MB

Magnet: Magnet Link

Seeds: 0

Leechers: 0

Stream: Watch Online @ Movie4u

Last Updated: 2010-12-04 17:21:58 (Update Now)

Torrent added: 2009-09-02 07:37:59





Torrent Files List


rep-k.r25 (Size: 692.33 MB) (Files: 52)

 rep-k.r25

14.31 MB

 rep-k.r00

14.31 MB

 rep-k.r01

14.31 MB

 rep-k.r02

14.31 MB

 rep-k.r03

14.31 MB

 rep-k.r04

14.31 MB

 rep-k.r05

14.31 MB

 rep-k.r06

14.31 MB

 rep-k.r07

14.31 MB

 rep-k.r08

14.31 MB

 rep-k.r09

14.31 MB

 rep-k.r10

14.31 MB

 rep-k.r11

14.31 MB

 rep-k.r12

14.31 MB

 rep-k.r13

14.31 MB

 rep-k.r14

14.31 MB

 rep-k.r15

14.31 MB

 rep-k.r16

14.31 MB

 rep-k.r17

14.31 MB

 rep-k.r18

14.31 MB

 rep-k.r19

14.31 MB

 rep-k.r20

14.31 MB

 rep-k.r21

14.31 MB

 rep-k.r22

14.31 MB

 rep-k.r23

14.31 MB

 rep-k.r24

14.31 MB

 rep-k.r38

14.31 MB

 rep-k.r26

14.31 MB

 rep-k.r27

14.31 MB

 rep-k.r28

14.31 MB

 rep-k.r29

14.31 MB

 rep-k.r30

14.31 MB

 rep-k.r31

14.31 MB

 rep-k.r32

14.31 MB

 rep-k.r33

14.31 MB

 rep-k.r34

14.31 MB

 rep-k.r35

14.31 MB

 rep-k.r36

14.31 MB

 rep-k.r37

14.31 MB

 rep-k.r44

14.31 MB

 rep-k.r39

14.31 MB

 rep-k.r40

14.31 MB

 rep-k.r41

14.31 MB

 rep-k.r42

14.31 MB

 rep-k.r43

14.31 MB

 rep-k.r45

14.31 MB

 rep-k.r46

14.31 MB

 rep-k.rar

14.31 MB

 rep-k.r47

5.68 MB

 rep-k.sfv

3.25 KB

 rep-k.nfo

2.26 KB

 Torrent downloaded from Demonoid.com.txt

0.05 KB
 

Announce URL: http://tracker.thepiratebay.org/announce

Torrent description

Knowing.2009.PROPER.DVDRip.XviD-Replicas


General
Complete name : C:Temprep-k.avi
Format : AVI
Format/Info : Audio Video Interleave
File size : 701 MiB
Duration : 2h 1mn
Overall bit rate : 807 Kbps
Writing application : VirtualDubMod 1.5.10.2 (build 2542/release)
Writing library : VirtualDubMod build 2542/release

Video
Format : MPEG-4 Visual
Format profile : Streaming [email protected]
Format settings, BVOP : Yes
Format settings, QPel : No
Format settings, GMC : No warppoints
Format settings, Matrix : Default (H.263)
Muxing mode : Packed bitstream
Codec ID : XVID
Codec ID/Hint : XviD
Duration : 2h 1mn
Bit rate : 669 Kbps
Width : 640 pixels
Height : 272 pixels
Display aspect ratio : 2.35
Frame rate : 23.976 fps
Resolution : 24 bits
Colorimetry : 4:2:0
Scan type : Progressive
Bits/(Pixel*Frame) : 0.160
Stream size : 581 MiB (83%)
Writing library : XviD 1.2.1 (UTC 2008-12-04)

Audio
Format : MPEG Audio
Format version : Version 1
Format profile : Layer 3
Codec ID : 55
Codec ID/Hint : MP3
Duration : 2h 1mn
Bit rate mode : Constant
Bit rate : 128 Kbps
Channel(s) : 2 channels
Sampling rate : 48.0 KHz
Resolution : 16 bits
Stream size : 111 MiB (16%)
Alignment : Aligned on interleaves
Interleave, duration : 42 ms (1.00 video frame)
Interleave, preload duration : 504 ms
Writing library : LAME3.98r


Enjoy a Replicas release.

weblink:http://www.imdb.com/title/tt0448011/

related torrents

Torrent name

health leech seeds Size
 

comments (0)

Main Menu