TV - Other

Millionaire Hot Seat 02 09 2009 Aussie TV Game

  • Download 5x Faster
  • Download torrent
  • Direct Download
  • Rate this torrent +  |  -
Millionaire Hot Seat 02 09 2009 Aussie TV Game

Anonymous and Free Direct Download 300GB+


Torrent info

Name:Millionaire Hot Seat 02 09 2009 Aussie TV Game

Total Size: 210.64 MB

Magnet: Magnet Link

Seeds: 1

Leechers: 1

Stream: Watch Online @ Movie4u

Last Updated: 2010-03-15 14:25:33 (Update Now)

Torrent added: 2009-09-02 07:37:09



VPN For Torrents

Torrent Files List


Millionaire Hot Seat - 02-09-2009.avi (Size: 210.64 MB) (Files: 1)

 Millionaire Hot Seat - 02-09-2009.avi

210.64 MB
 

Announce URL: http://greekadiko.biz:2710/5a37eef5594e2e3f9d6a6c35b9576db3/announce

Torrent description

Millionaire Hot Seat   02 09 2009   Aussie TV Game preview 0


Australian TV Game where players can win $1.000.000!




General
Complete name : Millionaire Hot Seat - 02-09-2009.avi
Format : AVI
Format/Info : Audio Video Interleave
File size : 211 MiB
Duration : 23mn 28s
Overall bit rate : 1 255 Kbps
Writing application : VirtualDubMod 1.5.4.1 (build 2178/release)
Writing library : VirtualDubMod build 2178/release

Video
ID : 0
Format : MPEG-4 Visual
Format profile : Streaming [email protected]
Format settings, BVOP : Yes
Format settings, QPel : No
Format settings, GMC : No warppoints
Format settings, Matrix : Default (H.263)
Muxing mode : Packed bitstream
Codec ID : XVID
Codec ID/Hint : XviD
Duration : 23mn 28s
Bit rate : 1 055 Kbps
Width : 720 pixels
Height : 416 pixels
Display aspect ratio : 16/9
Frame rate : 25.000 fps
Resolution : 24 bits
Colorimetry : 4:2:0
Scan type : Progressive
Bits/(Pixel*Frame) : 0.141
Stream size : 177 MiB (84%)
Writing library : XviD 1.2.1 (UTC 2008-12-04)

Audio
ID : 1
Format : MPEG Audio
Format version : Version 1
Format profile : Layer 3
Codec ID : 55
Codec ID/Hint : MP3
Duration : 23mn 28s
Bit rate mode : Constant
Bit rate : 192 Kbps
Channel(s) : 2 channels
Sampling rate : 44.1 KHz
Resolution : 16 bits
Stream size : 32.2 MiB (15%)
Alignment : Split accross interleaves
Interleave, duration : 80 ms (2.00 video frames)
Interleave, preload duration : 500 ms

related torrents

Torrent name

health leech seeds Size
 


comments (0)

Main Menu