Drama

Kings Of South Beach maz

  • Download 5x Faster
  • Download torrent
  • Direct Download
  • Rate this torrent +  |  -
Kings Of South Beach maz

Free and Direct Download with Usenet 300GB+ free


Torrent info

Name:Kings Of South Beach maz

Total Size: 696.40 MB

Magnet: Magnet Link

Seeds: 0

Leechers: 0

Stream: Watch Online @ Movie4u

Last Updated: 2010-08-19 15:51:06 (Update Now)

Torrent added: 2009-09-02 07:32:54




Torrent Files List


Beach-maz.nfo (Size: 696.40 MB) (Files: 52)

 Beach-maz.nfo

2.71 KB

 King-maz.part01.rar

14.31 MB

 King-maz.part02.rar

14.31 MB

 King-maz.part03.rar

14.31 MB

 King-maz.part04.rar

14.31 MB

 King-maz.part05.rar

14.31 MB

 King-maz.part06.rar

14.31 MB

 King-maz.part07.rar

14.31 MB

 King-maz.part08.rar

14.31 MB

 King-maz.part09.rar

14.31 MB

 King-maz.part10.rar

14.31 MB

 King-maz.part11.rar

14.31 MB

 King-maz.part12.rar

14.31 MB

 King-maz.part13.rar

14.31 MB

 King-maz.part14.rar

14.31 MB

 King-maz.part15.rar

14.31 MB

 King-maz.part16.rar

14.31 MB

 King-maz.part17.rar

14.31 MB

 King-maz.part18.rar

14.31 MB

 King-maz.part19.rar

14.31 MB

 King-maz.part20.rar

14.31 MB

 King-maz.part21.rar

14.31 MB

 King-maz.part22.rar

14.31 MB

 King-maz.part23.rar

14.31 MB

 King-maz.part24.rar

14.31 MB

 King-maz.part25.rar

14.31 MB

 King-maz.part26.rar

14.31 MB

 King-maz.part27.rar

14.31 MB

 King-maz.part28.rar

14.31 MB

 King-maz.part29.rar

14.31 MB

 King-maz.part30.rar

14.31 MB

 King-maz.part31.rar

14.31 MB

 King-maz.part32.rar

14.31 MB

 King-maz.part33.rar

14.31 MB

 King-maz.part34.rar

14.31 MB

 King-maz.part35.rar

14.31 MB

 King-maz.part36.rar

14.31 MB

 King-maz.part37.rar

14.31 MB

 King-maz.part38.rar

14.31 MB

 King-maz.part39.rar

14.31 MB

 King-maz.part40.rar

14.31 MB

 King-maz.part41.rar

14.31 MB

 King-maz.part42.rar

14.31 MB

 King-maz.part43.rar

14.31 MB

 King-maz.part44.rar

14.31 MB

 King-maz.part45.rar

14.31 MB

 King-maz.part46.rar

14.31 MB

 King-maz.part47.rar

14.31 MB

 King-maz.part48.rar

14.31 MB

 King-maz.part49.rar

9.75 MB

 Kings.Of.South.Beach-maz.sfv

4.33 KB

 Torrent_downloaded_from_Demonoid.com.txt

0.05 KB
 

Announce URL: http://open.tracker.thepiratebay.org/announce

Torrent description

Kings Of South Beach maz preview 0

******************* maz ***********************

Imbd:http://www.imdb.com/title/tt0780059/
Trailer:
Rating: 5.1/10 (267 votes)
Genre:Drama
Language:English
Sub:N/A

Plot:
Based on the true story of a Miami Beach nightclub owner who
takes a young employee under his wing, while trying to avoid
bankruptcy and the mafia.

Cast overview:
Donnie Wahlberg ... Andy Burnett
Jason Gedrick ... Chris Troiano
Steven Bauer ... Allie Boy
Maria Valentina Bove ... Zoya Petrov
Ricardo Chavira ... Enrique
Juan Pablo Gamboa ... Danny Hayes
Cristina Garcia ... Officer Saban
Brian Goodman ... Lt. Jim Hawke

General
Format : AVI
Format/Info : Audio Video Interleave
File size : 702 MiB
Duration : 1h 30mn
Overal bit rate : 1085 Kbps
Writing application : Nandub v1.0rc2
Writing library : Nandub build 1852/release

Video
Format : MPEG-4 Visual
Format profile : Streaming [email protected]
Format settings, BVOP : Yes
Format settings, QPel : No
Format settings, GMC : 0 warppoint
Format settings, Matrix : Default
Muxing mode : Packet Bitstream
Codec ID : XVID
Codec ID/Hint : XviD
Duration : 1h 30mn
Bit rate : 934 Kbps
Width : 624 pixels
Height : 352 pixels
Display aspect ratio : 16/9
Frame rate : 23.976 fps
Resolution : 8 bits
Colorimetry : 4:2:0
Scan type : Progressive
Bits/(Pixel*Frame) : 0.177
Stream size : 604 MiB
Writing library : XviD 1.1.2
Writing library/Date : UTC 2006-11-01

Audio
Format : MPEG Audio
Format version : Version 1 / Layer 3
Codec ID : 55
Codec ID/Hint : MP3
Duration : 1h 30mn
Bit rate mode : VBR
Bit rate : 138 Kbps
Nominal bit rate : 135 Kbps
Channel(s) : 2 channels
Sampling rate : 48.0 KHz
Resolution : 16 bits
Stream size : 89.6 MiB
Writing library : LAME3.90.
Encoding settings : ABR

********************** Enjoy ************************

related torrents

Torrent name

health leech seeds Size
 

comments (0)

Main Menu