Drama

Katyn 2007 DVDRIP ZEKTORM

  • Download 5x Faster
  • Download torrent
  • Direct Download
  • Rate this torrent +  |  -
Katyn 2007 DVDRIP ZEKTORM

Anonymous and Free Direct Download 300GB+


Torrent info

Name:Katyn 2007 DVDRIP ZEKTORM

Total Size: 703.30 MB

Magnet: Magnet Link

Seeds: 7

Leechers: 9

Stream: Watch Online @ Movie4u

Last Updated: 2010-12-15 05:47:36 (Update Now)

Torrent added: 2009-09-02 07:24:17



VPN For Torrents

Torrent Files List


Katyn.2007.DVDRIP-ZEKTORM.mp4 (Size: 703.30 MB) (Files: 4)

 Katyn.2007.DVDRIP-ZEKTORM.mp4

700.45 MB

 READ.hlp

12.95 KB

 Subs

  Katyn.2007.DVDRIP-ZEKTORM.idx

46.78 KB

  Katyn.2007.DVDRIP-ZEKTORM.sub

2.79 MB
 

Announce URL: http://tv.tracker.prq.to/announce

Torrent description

Title : Katyn
Year : 2007
Genre : Drama | History | War
iMDB Rate : User Rating: 7.1/10 2,422 votes
iMDB URL : http://www.imdb.com/title/tt0879843/
Awards : Nominated for Oscar. Another 11 wins

Complete name : Katyn.2007.DVDRIP-ZEKTORM.mp4
Format : MPEG-4
Format profile : Base Media
Codec ID : isom
File size : 700 MiB
Duration : 2h 2mn
Overall bit rate : 802 Kbps
Subtitles : English (Format: VobSub)
Source : DVD NTSC
Encoded date : UTC 2009-03-02 20:05:48

Video
Format : AVC
Format/Info : Advanced Video Codec
Format profile : [email protected]
Format settings, CABAC : Yes
Format settings, ReFrames : 10 frames
Codec ID : avc1
Codec ID/Info : Advanced Video Coding
Duration : 2h 2mn
Bit rate mode : Variable
Bit rate : 715 Kbps
Maximum bit rate : 5846 Kbps
Width : 720 pixels
Height : 480 pixels
Display aspect ratio : 16/9
Frame rate mode : Constant
Frame rate : 23.976 fps
Standard : NTSC
Resolution : 24 bits
Colorimetry : 4:2:0
Scan type : Progressive
Bits/(Pixel*Frame) : 0.086
Stream size : 624 MiB (89%)
Title : Video
Writing library : x264 core 60 r900 a9af942

Audio
Format : AAC
Format/Info : Advanced Audio Codec
Format version : Version 4
Format profile : LC
Format settings, SBR : Yes
Format settings, PS : No
Codec ID : 40
Duration : 2h 2mn
Bit rate mode : Variable
Bit rate : 84.1 Kbps
Maximum bit rate : 107 Kbps
Channel(s) : 2 channels
Channel positions : L R
Sampling rate : 48.0 KHz
Resolution : 16 bits
Stream size : 73.4 MiB (10%)
Title : Polish
Language : Polish

related torrents

Torrent name

health leech seeds Size

Katyn 2007 TS XviD PL

2 40 700.01 MB 0
 


comments (0)

Main Menu