Drama

Eisenstein Strike (aka Stachka) (1925) DVDRip x264

  • Download 5x Faster
  • Download torrent
  • Direct Download
  • Rate this torrent +  |  -
Eisenstein Strike (aka Stachka) (1925) DVDRip x264

Free and Direct Download with Usenet 300GB+ free


Torrent info

Name:Eisenstein Strike (aka Stachka) (1925) DVDRip x264

Total Size: 1.46 GB

Magnet: Magnet Link

Seeds: 0

Leechers: 0

Stream: Watch Online @ Movie4u

Last Updated: 2010-11-15 21:26:41 (Update Now)

Torrent added: 2009-09-02 07:21:33




Torrent Files List


Stachka.1925.DVDRip.x264.AC3.Subs.Comments.mkv (Size: 1.46 GB) (Files: 1)

 Stachka.1925.DVDRip.x264.AC3.Subs.Comments.mkv

1.46 GB
 

Announce URL: http://tracker.thepiratebay.org:80/announce

Torrent description

Notice: make sure your PC can play x264 encodes.

Plot: In Russia's factory region during Czarist rule, there's restlessness and strike planning among workers; management brings in spies and external agents. When a worker hangs himself after being falsely accused of thievery, the workers strike.

Silent flick, Russian intertitles, English hardsub + English audio commentary

General
Format : Matroska
File size : 1.46 GiB
Duration : 1h 34mn
Overall bit rate : 2 206 Kbps
Encoded date : UTC 2009-06-20 08:27:10
Writing application : mkvmerge v2.9.5 ('Tu es le seul') built on Jun 7 2009 11:07:07
Writing library : libebml v0.7.7 + libmatroska v0.8.1

Video
ID : 3
Format : AVC
Format/Info : Advanced Video Codec
Format profile : [email protected]
Format settings, CABAC : Yes
Format settings, ReFrames : 16 frames
Muxing mode : Container [email protected]
Codec ID : V_MPEG4/ISO/AVC
Duration : 1h 34mn
Bit rate : 1 778 Kbps
Nominal bit rate : 1 820 Kbps
Width : 656 pixels
Height : 432 pixels
Display aspect ratio : 4/3
Frame rate : 29.970 fps
Resolution : 24 bits
Colorimetry : 4:2:0
Scan type : Progressive
Bits/(Pixel*Frame) : 0.209
Stream size : 1.17 GiB (81%)
Writing library : x264 core 67 r1165M 6841c5e
Encoding settings : cabac=1 / ref=16 / deblock=1:0:0 / analyse=0x3:0x133 / me=esa / subme=8 / psy_rd=1.0:0.0 / mixed_ref=1 / me_range=16 / chroma_me=0 / trellis=2 / 8x8dct=1 / cqm=0 / deadzone=21,11 / chroma_qp_offset=-4 / threads=3 / nr=0 / decimate=0 / mbaff=0 / bframes=5 / b_pyramid=1 / b_adapt=2 / b_bias=0 / direct=3 / wpredb=1 / keyint=290 / keyint_min=29 / scenecut=40 / rc=2pass / bitrate=1820 / ratetol=1.0 / qcomp=0.60 / qpmin=10 / qpmax=51 / qpstep=4 / cplxblur=20.0 / qblur=0.5 / ip_ratio=1.40 / pb_ratio=1.30 / aq=1:1.00 / zones=168477,169980,q=40

Audio #1
ID : 1
Format : AC-3
Format/Info : Audio Coding 3
Codec ID : A_AC3
Duration : 1h 34mn
Bit rate mode : Constant
Bit rate : 192 Kbps
Channel(s) : 2 channels
Channel positions : L R
Sampling rate : 48.0 KHz
Stream size : 130 MiB (9%)

Audio #2
ID : 2
Format : AC-3
Format/Info : Audio Coding 3
Codec ID : A_AC3
Duration : 1h 34mn
Bit rate mode : Constant
Bit rate : 192 Kbps
Channel(s) : 1 channel
Channel positions : C
Sampling rate : 48.0 KHz
Stream size : 130 MiB (9%)
Language : English

*********************************** FREAKYFLICKS ************************************

'If we all seed just 1:1, give at least what we take, this torrent will NEVER DIE'

related torrents

Torrent name

health leech seeds Size
 

comments (0)

Main Menu