Drama

Kalifornia, [DivX Ita Ac3][ scambioetico org]

  • Download 5x Faster
  • Download torrent
  • Direct Download
  • Rate this torrent +  |  -
Kalifornia, [DivX Ita Ac3][ scambioetico org]

Free and Direct Download with Usenet 300GB+ free


Torrent info

Name:Kalifornia, [DivX Ita Ac3][ scambioetico org]

Total Size: 1.37 GB

Magnet: Magnet Link

Seeds: 0

Leechers: 0

Stream: Watch Online @ Movie4u

Last Updated: 2015-10-19 12:41:29 (Update Now)

Torrent added: 2009-09-02 07:21:03




Torrent Files List


Kalifornia.avi (Size: 1.37 GB) (Files: 1)

 Kalifornia.avi

1.37 GB
 

Announce URL:

Torrent description

Kalifornia, [DivX - Ita Ac3][www.tntvillage.scambioetico.org]

Scheda del film

Titolo:Kalifornia
Titolo originale:Kalifornia
Nazionalità:USA
Anno:1993
Genere:Drammatico
Regia: Dominic Sena
Produzione:Polygram filmed entertainment, Propaganda films, Kouf/Bigelow productions, Viacom productions
Distribuzione:Warner Bros Italia - PanarecoRd
Data di uscita:1993

Cast

Brad Pitt, Juliette Lewis, David Duchovny, Michelle Forbes, Catherine Larson, David Milford, John Zarchen, David Rose, Tommy Chappelle, Judson Vaughn, Patricia Sill, Brett Rice, Marisa Raper, Bill Crabbe, Mary Ann Hagan

Scheda tecnica (Mediainfo)

General
Complete name : Kalifornia.avi
Format : AVI
Format/Info : Audio Video Interleave
File size : 1.37 GiB
Duration : 1h 53mn
Overall bit rate : 1 732 Kbps
Writing application : FairUse Wizard - http://fairusewizard.com
Writing library : The best and REALLY easy backup tool

Video
Format : MPEG-4 Visual
Format settings, BVOP : No
Format settings, QPel : No
Format settings, GMC : No warppoints
Format settings, Matrix : Default
Codec ID : DX50
Codec ID/Hint : DivX 5
Duration : 1h 53mn
Bit rate : 1 531 Kbps
Width : 688 pixels
Height : 288 pixels
Display aspect ratio : 2.35
Frame rate : 25.000 fps
Resolution : 24 bits
Colorimetry : 4:2:0
Scan type : Progressive
Bits/(Pixel*Frame) : 0.309
Stream size : 1.21 GiB (88%)
Writing library : DivX 5.2.0 (UTC 2004-07-15)

Audio
Format : AC-3
Format/Info : Audio Coding 3
Codec ID : 2000
Duration : 1h 53mn
Bit rate mode : Constant
Bit rate : 192 Kbps
Channel(s) : 2 channels
Channel positions : L R
Sampling rate : 48.0 KHz
Stream size : 155 MiB (11%)
Alignment : Split accross interleaves
Interleave, duration : 40 ms (1.00 video frame)
Interleave, preload duration : 500 ms

related torrents

Torrent name

health leech seeds Size
 

comments (0)

Main Menu