Drama

Just Buried 2007 DVDRIP ZEKTORM

  • Download 5x Faster
  • Download torrent
  • Direct Download
  • Rate this torrent +  |  -
Just Buried 2007 DVDRIP ZEKTORM

Free and Direct Download with Usenet.nl 300GB+ free


Torrent info

Name:Just Buried 2007 DVDRIP ZEKTORM

Total Size: 700.03 MB

Magnet: Magnet Link

Seeds: 0

Leechers: 0

Stream: Watch Online @ Movie4u

Last Updated: 2010-09-22 11:04:05 (Update Now)

Torrent added: 2009-09-02 07:18:56





Torrent Files List


Just.Buried.2007.DVDRIP-ZEKTORM.mp4 (Size: 700.03 MB) (Files: 2)

 Just.Buried.2007.DVDRIP-ZEKTORM.mp4

700.02 MB

 READ.hlp

12.64 KB
 

Announce URL: http://eztv.tracker.thepiratebay.org:80/announce

Torrent description

Title : Just Buried
Year : 2007
Genre : Comedy | Drama
iMDB Rate : User Rating: 6.0/10 375 votes
iMDB URL : http://www.imdb.com/title/tt0906326/
Awards : 2 wins

Complete name : Just.Buried.2007.DVDRIP-ZEKTORM.mp4
Format : MPEG-4
Format profile : Base Media
Codec ID : isom
File size : 700 MiB
Duration : 1h 33mn
Overall bit rate : 1046 Kbps
Source : DVD NTSC
Encoded date : UTC 2009-01-27 22:54:50

Video
Format : AVC
Format/Info : Advanced Video Codec
Format profile : [email protected]
Format settings, CABAC : Yes
Format settings, ReFrames : 10 frames
Codec ID : avc1
Codec ID/Info : Advanced Video Coding
Duration : 1h 33mn
Bit rate mode : Variable
Bit rate : 965 Kbps
Maximum bit rate : 7697 Kbps
Width : 704 pixels
Height : 480 pixels
Display aspect ratio : 16/9
Frame rate mode : Constant
Frame rate : 23.976 fps
Resolution : 24 bits
Colorimetry : 4:2:0
Scan type : Progressive
Bits/(Pixel*Frame) : 0.119
Stream size : 646 MiB (92%)
Title : Video
Writing library : x264 core 60 r900 a9af942

Audio
Format : AAC
Format/Info : Advanced Audio Codec
Format version : Version 4
Format profile : LC
Format settings, SBR : Yes
Format settings, PS : No
Codec ID : 40
Duration : 1h 33mn
Bit rate mode : Variable
Bit rate : 77.8 Kbps
Maximum bit rate : 105 Kbps
Channel(s) : 2 channels
Channel positions : L R
Sampling rate : 48.0 KHz
Resolution : 16 bits
Stream size : 52.1 MiB (7%)
Title : English
Language : English

Notes : Convert to DVD with Ner

related torrents

Torrent name

health leech seeds Size
 

comments (0)

Main Menu