Drama

Just Another Saturday][Avi][Hectorbusinspector][H33t]

  • Download 5x Faster
  • Download torrent
  • Direct Download
  • Rate this torrent +  |  -
Just Another Saturday][Avi][Hectorbusinspector][H33t]

Free and Direct Download with Usenet.nl 300GB+ free


Torrent info

Name:Just Another Saturday][Avi][Hectorbusinspector][H33t]

Total Size: 701.07 MB

Magnet: Magnet Link

Seeds: 0

Leechers: 0

Stream: Watch Online @ Movie4u

Last Updated: 2010-09-23 09:39:56 (Update Now)

Torrent added: 2009-09-02 07:18:21





Torrent Files List


introduction to us, we are not pirates.txt (Size: 701.07 MB) (Files: 5)

 introduction to us, we are not pirates.txt

4.55 KB

 Just Another Saturday 001.jpg

1.03 MB

 Just Another Saturday.avi

700.03 MB

 Just Another Saturday.txt

3.19 KB

 tracked_by_h33t_com.txt

0.02 KB
 

Announce URL: http://www.h33t.com:3310/announce

Torrent description

in which he will lead his local Orange Lodge band as mace-swinger. However,
as the day progresses he begins to become disillusioned with the day and his colleagues,
as he witnesses their growing drunkenness and unwarranted violence
against Catholic homes on the march's route.
Events of the day lead him to question his involvement with the band,
which also threatens his own safety.
*****************************************************************************************
General
Complete name : Just Another Saturday][Avi][Hectorbusinspector][H33t]Just Another Saturday.avi
Format : AVI
Format/Info : Audio Video Interleave
File size : 700 MiB
Duration : 1h 22mn
Overall bit rate : 1 180 Kbps
Writing application : VirtualDubMod 1.5.4.1 (build 2178/release)
Writing library : VirtualDubMod build 2178/release

Video
Format : MPEG-4 Visual
Format profile : Streaming [email protected]
Format settings, BVOP : Yes
Format settings, QPel : No
Format settings, GMC : No warppoints
Format settings, Matrix : Custom
Codec ID : XVID
Codec ID/Hint : XviD
Duration : 1h 22mn
Bit rate : 1 060 Kbps
Width : 512 pixels
Height : 384 pixels
Display aspect ratio : 4/3
Frame rate : 25.000 fps
Resolution : 24 bits
Colorimetry : 4:2:0
Scan type : Progressive
Bits/(Pixel*Frame) : 0.216
Stream size : 629 MiB (90%)
Writing library : XviD 1.2.1 (UTC 2008-12-04)

Audio
Format : MPEG Audio
Format version : Version 1
Format profile : Layer 3
Codec ID : 55
Codec ID/Hint : MP3
Duration : 1h 22mn
Bit rate mode : Constant
Bit rate : 112 Kbps
Channel(s) : 2 channels
Sampling rate : 44.1 KHz
Resolution : 16 bits
Stream size : 66.5 MiB (9%)
Alignment : Split accross interleaves
Interleave, duration : 80 ms (2.00 video frames)
Interleave, preload duration : 500 ms
Writing library : LAME3.98r
Encoding settings : -m j -V 4 -q 2 -lowpass 15.6 -b 112
Language : English
*******************************************************************************************
Avi

Info

H333t.com

Tell A Friend

But Be Aware Of The Adds.

*******************************************************************************************

related torrents

Torrent name

health leech seeds Size

Just Another Saturday

0 0 349.78 MB 0
 

comments (0)

Main Menu