Drama

Jumeogi Unda (Crying Fist) 2005 Ryoo Seung wan

  • Download 5x Faster
  • Download torrent
  • Direct Download
  • Rate this torrent +  |  -
Jumeogi Unda (Crying Fist) 2005 Ryoo Seung wan

Free and Direct Download with Usenet 300GB+ free


Torrent info

Name:Jumeogi Unda (Crying Fist) 2005 Ryoo Seung wan

Total Size: 1.37 GB

Magnet: Magnet Link

Seeds: 3

Leechers: 4

Stream: Watch Online @ Movie4u

Last Updated: 2010-09-22 10:44:22 (Update Now)

Torrent added: 2009-09-02 07:15:54




Torrent Files List


Jumeogi.Unda.(Crying Fist)2005.DVDRip.XviD.CD1-LUXURY.avi (Size: 1.37 GB) (Files: 15)

 Jumeogi.Unda.(Crying Fist)2005.DVDRip.XviD.CD1-LUXURY.avi

699.75 MB

 Jumeogi.Unda.(Crying Fist)2005.DVDRip.XviD.CD1-LUXURY_CZE.srt

34.69 KB

 Jumeogi.Unda.(Crying Fist)2005.DVDRip.XviD.CD1-LUXURY_ENG.srt

35.22 KB

 Jumeogi.Unda.(Crying Fist)2005.DVDRip.XviD.CD1-LUXURY_POL.srt

34.89 KB

 Jumeogi.Unda.(Crying Fist)2005.DVDRip.XviD.CD1-LUXURY_ROM.srt

36.42 KB

 Jumeogi.Unda.(Crying Fist)2005.DVDRip.XviD.CD1-LUXURY_SPA.srt

33.85 KB

 Jumeogi.Unda.(Crying Fist)2005.DVDRip.XviD.CD1-LUXURY_TUR.srt

35.88 KB

 Jumeogi.Unda.(Crying Fist)2005.DVDRip.XviD.CD2-LUXURY.avi

700.52 MB

 Jumeogi.Unda.(Crying Fist)2005.DVDRip.XviD.CD2-LUXURY_CZE.srt

33.95 KB

 Jumeogi.Unda.(Crying Fist)2005.DVDRip.XviD.CD2-LUXURY_ENG.srt

33.82 KB

 Jumeogi.Unda.(Crying Fist)2005.DVDRip.XviD.CD2-LUXURY_POL.srt

34.29 KB

 Jumeogi.Unda.(Crying Fist)2005.DVDRip.XviD.CD2-LUXURY_ROM.srt

34.94 KB

 Jumeogi.Unda.(Crying Fist)2005.DVDRip.XviD.CD2-LUXURY_SPA.srt

33.70 KB

 Jumeogi.Unda.(Crying Fist)2005.DVDRip.XviD.CD2-LUXURY_TUR.srt

35.26 KB

 Torrent downloaded from Demonoid.com.txt

0.05 KB
 

Announce URL: http://inferno.demonoid.com:3407/announce

Torrent description

----------------------------------------------------------------------------------
Jumeogi Unda (Crying Fist) - 2005 - Ryoo Seung-wan
----------------------------------------------------------------------------------



Jumeogi Unda (Crying Fist) 2005 Ryoo Seung wan preview 0

This is the story of two men who brave their way through a rough life to come up against each other in one great fight that will decide their destinies. Based on two true stories, director Ryoo Seung-wan (Arahan) combines the two tall tales of the once championship winning Hareruya Akira and the amateur boxing champion Seo-Chol into a personal epic of fate and destiny.

Tae-shik (Choi Min-sik), once a silver medalist in the Asian Games, now gets paid to be beaten up in place of others in the middle of the street. Gambling debts and a fire in a factory have consumed everything he has ever owned, so he has no choice but to work as a street boxer in order to make ends meet. All he has left is his wife and son. To make matters worse, his wife demands a divorce and he is no longer able to live with his son Seo-Jin who is his only hope in life. With his back against the wall and nothing more to lose, the old boxer decides to go for the amateur boxing title.

Sang-Hwan\'s (Ryoo Seung-beom) daily routine consisted of gang fights and muggings. One day, he needs money to pay off compensation fees which in turn leads him to rob a wealthy neighbor, landing him smack in juvenile detention. The first day of confinement starts with a fight that gets him thrown in solitary confinement. A guard suggests that Sang-Hwan join the boxing club after the fistfight between him and the inmate. Boxing gradually taught him for the first time that he could actually do something. While serving time, his father has passed away suddenly and his grandmother has had a stroke. In shock, Sang-Hwan prepares to win the amateur title in an effort to shake off his grief.



---------------------------------
Media Info CD 1:
---------------------------------

General

Complete name : Jumeogi.Unda.(Crying Fist)2005.DVDRip.XviD.CD1-LUXURY.avi
Format : AVI
Format/Info : Audio Video Interleave
File size : 700 MiB
Duration : 1h 2mn
Overall bit rate : 1571 Kbps
Writing application : VirtualDubMod 1.5.10.1 (build 2439/release)
Writing library : VirtualDubMod build 2439/release

Video

Format : MPEG-4 Visual
Format profile : Streaming [email protected]
Format settings, BVOP : Yes
Format settings, QPel : No
Format settings, GMC : No warppoints
Format settings, Matrix : Default
Muxing mode : Packet Bitstream
Codec ID : XVID
Codec ID/Hint : XviD
Duration : 1h 2mn
Bit rate : 1178 Kbps
Width : 640 pixels
Height : 272 pixels
Display aspect ratio : 2.35
Frame rate : 23.976 fps
Resolution : 8 bits
Colorimetry : 4:2:0
Scan type : Progressive
Bits/(Pixel*Frame) : 0.282
Stream size : 525 MiB (75%)
Writing library : XviD 1.1.0 Beta2 (UTC 2005-04-04)

Audio

Format : AC-3
Format/Info : Audio Coding 3
Codec ID : 2000
Duration : 1h 2mn
Bit rate mode : Constant
Bit rate : 384 Kbps
Channel(s) : 6 channels
Channel positions : Front: L C R, Rear: L R, LFE
Sampling rate : 48.0 KHz
Stream size : 171 MiB (24%)
Alignment : Split accross interleaves
Interleave, duration : 42 ms (1.00 video frame)
Interleave, preload duration : 500 ms

----------------------------------
Media Info CD 2:
----------------------------------

General

Complete name : Jumeogi.Unda.(Crying Fist)2005.DVDRip.XviD.CD2-LUXURY.avi
Format : AVI
Format/Info : Audio Video Interleave
File size : 701 MiB
Duration : 1h 12mn
Overall bit rate : 1351 Kbps
Writing application : VirtualDubMod 1.5.10.1 (build 2439/release)
Writing library : VirtualDubMod build 2439/release

Video

Format : MPEG-4 Visual
Format profile : Streaming [email protected]
Format settings, BVOP : Yes
Format settings, QPel : No
Format settings, GMC : No warppoints
Format settings, Matrix : Default
Muxing mode : Packet Bitstream
Codec ID : XVID
Codec ID/Hint : XviD
Duration : 1h 12mn
Bit rate : 959 Kbps
Width : 640 pixels
Height : 272 pixels
Display aspect ratio : 2.35
Frame rate : 23.976 fps
Resolution : 8 bits
Colorimetry : 4:2:0
Scan type : Progressive
Bits/(Pixel*Frame) : 0.230
Stream size : 497 MiB (71%)
Writing library : XviD 1.1.0 Beta2 (UTC 2005-04-04)

Audio

Format : AC-3
Format/Info : Audio Coding 3
Codec ID : 2000
Duration : 1h 12mn
Bit rate mode : Constant
Bit rate : 384 Kbps
Channel(s) : 6 channels
Channel positions : Front: L C R, Rear: L R, LFE
Sampling rate : 48.0 KHz
Video delay : 3ms
Stream size : 199 MiB (28%)
Alignment : Split accross interleaves
Interleave, duration : 42 ms (1.00 video frame)
Interleave, preload duration : 500 ms

-------------------------------------------
Subtitles (In .srt format):
-------------------------------------------

*Spanish
*English
*Czech
*Polish
*Romanian
*Turkish

--------------------------
Caps:
--------------------------

Jumeogi Unda (Crying Fist) 2005 Ryoo Seung wan preview 1

Jumeogi Unda (Crying Fist) 2005 Ryoo Seung wan preview 2

Jumeogi Unda (Crying Fist) 2005 Ryoo Seung wan preview 3

Jumeogi Unda (Crying Fist) 2005 Ryoo Seung wan preview 4

Jumeogi Unda (Crying Fist) 2005 Ryoo Seung wan preview 5

Jumeogi Unda (Crying Fist) 2005 Ryoo Seung wan preview 6

Jumeogi Unda (Crying Fist) 2005 Ryoo Seung wan preview 7

Jumeogi Unda (Crying Fist) 2005 Ryoo Seung wan preview 8

Jumeogi Unda (Crying Fist) 2005 Ryoo Seung wan preview 9

Jumeogi Unda (Crying Fist) 2005 Ryoo Seung wan preview 10

Jumeogi Unda (Crying Fist) 2005 Ryoo Seung wan preview 11

Jumeogi Unda (Crying Fist) 2005 Ryoo Seung wan preview 12

Jumeogi Unda (Crying Fist) 2005 Ryoo Seung wan preview 13

Jumeogi Unda (Crying Fist) 2005 Ryoo Seung wan preview 14

Jumeogi Unda (Crying Fist) 2005 Ryoo Seung wan preview 15

Jumeogi Unda (Crying Fist) 2005 Ryoo Seung wan preview 16

Jumeogi Unda (Crying Fist) 2005 Ryoo Seung wan preview 17

Jumeogi Unda (Crying Fist) 2005 Ryoo Seung wan preview 18

Jumeogi Unda (Crying Fist) 2005 Ryoo Seung wan preview 19

Jumeogi Unda (Crying Fist) 2005 Ryoo Seung wan preview 20

Jumeogi Unda (Crying Fist) 2005 Ryoo Seung wan preview 21

Jumeogi Unda (Crying Fist) 2005 Ryoo Seung wan preview 22

-----------------------
DVD Cover:
-----------------------

Jumeogi Unda (Crying Fist) 2005 Ryoo Seung wan preview 23

--------------------------
Trailer:
--------------------------

http://www.youtube.com/watch?v=CuXOxk3GCuc

related torrents

Torrent name

health leech seeds Size

Crying Fist VOSTR FR

0 0 696.85 MB 0
 

comments (0)

Main Menu