Drama

DOUBT[2008] AC3 5 1 DvDrip Maka6358 avi

  • Download 5x Faster
  • Download torrent
  • Direct Download
  • Rate this torrent +  |  -
DOUBT[2008] AC3 5 1 DvDrip Maka6358 avi

Anonymous and Free Direct Download 300GB+


Torrent info

Name:DOUBT[2008] AC3 5 1 DvDrip Maka6358 avi

Total Size: 1.37 GB

Magnet: Magnet Link

Seeds: 0

Leechers: 0

Stream: Watch Online @ Movie4u

Last Updated: 2010-05-27 05:11:34 (Update Now)

Torrent added: 2009-09-02 07:02:02



VPN For Torrents

Torrent Files List


[www.DarksideRG.com]Hellraiser.jpg (Size: 1.37 GB) (Files: 3)

 [www.DarksideRG.com]Hellraiser.jpg

126.92 KB

 DOUBT[2008]-AC3-5.1-DvDrip-Maka6358.avi

1.37 GB

 Torrent_downloaded_from_Demonoid.com.txt

0.05 KB
 

Announce URL: http://tracker.thepiratebay.org:80/announce

Torrent description

It's 1964, St. Nicholas in the Bronx. A charismatic priest, Father Flynn, is trying to upend the schools' strict customs, which have long been fiercely guarded by Sister Aloysius Beauvier, the iron-gloved Principal who believes in the power of fear and discipline. The winds of political change are sweeping through the community, and indeed, the school has just accepted its first black student, Donald Miller. But when Sister James, a hopeful innocent, shares with Sister Aloysius her guilt-inducing suspicion that Father Flynn is paying too much personal attention to Donald, Sister Aloysius sets off on a personal crusade to unearth the truth and to expunge Flynn from the school. Now, without a shard of proof besides her moral certainty, Sister Aloysius locks into a battle of wills with Father Flynn which threatens to tear apart the community with irrevocable consequence.

http://www.imdb.com/title/tt0918927/

General
Complete name : DOUBT[2008]-AC3-5.1-DvDrip-Maka6358.avi
Format : AVI
Format/Info : Audio Video Interleave
File size : 1.37 GiB
Duration : 1h 43mn
Overall bit rate : 1 884 Kbps
Writing application : VirtualDubMod 1.5.4.1 (build 2178/release)
Writing library : VirtualDubMod build 2178/release

Video
Format : MPEG-4 Visual
Format profile : Streaming [email protected]
Format settings, BVOP : No
Format settings, QPel : No
Format settings, GMC : No warppoints
Format settings, Matrix : Custom
Codec ID : XVID
Codec ID/Hint : XviD
Duration : 1h 43mn
Bit rate : 1 494 Kbps
Width : 672 pixels
Height : 368 pixels
Display aspect ratio : 16/9
Frame rate : 23.976 fps
Resolution : 24 bits
Colorimetry : 4:2:0
Scan type : Progressive
Bits/(Pixel*Frame) : 0.252
Stream size : 1.08 GiB (79%)
Writing library : XviD 1.2.0.dev47 (UTC 2006-11-01)

Audio
Format : AC-3
Format/Info : Audio Coding 3
Codec ID : 2000
Duration : 1h 43mn
Bit rate mode : Constant
Bit rate : 384 Kbps
Channel(s) : 6 channels
Channel positions : Front: L C R, Surround: L R, LFE
Sampling rate : 48.0 KHz
Stream size : 285 MiB (20%)
Alignment : Split accross interleaves
Interleave, duration : 96 ms (2.30 video frames)
Interleave, preload duration : 96 ms
Language : English

Info Hash : 2DD19124FB473D6B3F583E7BDBD7B41568BD52E8

related torrents

Torrent name

health leech seeds Size

Doubt (2008) zip

0 0 677.63 MB 0

Doubt (2008) [1080p]

0 0 1.65 GB 0

Doubt (2008) 1080p BrRip

5225 6897 677.71 MB 0
 


comments (0)

Main Menu