Drama

Iza Stakla (2008)

  • Download 5x Faster
  • Download torrent
  • Direct Download
  • Rate this torrent +  |  -
Iza Stakla (2008)

Free and Direct Download with Usenet 300GB+ free


Torrent info

Name:Iza Stakla (2008)

Total Size: 532.35 MB

Magnet: Magnet Link

Seeds: 0

Leechers: 0

Stream: Watch Online @ Movie4u

Last Updated: 2010-12-02 16:13:51 (Update Now)

Torrent added: 2009-09-02 06:55:29




Torrent Files List


www.yubraca.net (Size: 532.35 MB) (Files: 1)

 www.yubraca.net

  Iza Stakla by www.yubraca.net.avi

532.35 MB
 

Announce URL: http://open.tracker.thepiratebay.org/announce

Torrent description

http://www.imdb.com/title/tt1265980/


Iza stakla

Drama u režiji Zrinka Ogreste o ljubavnom trokutu ?iji ?e sudionici u nekoliko dana doživjeti lom izme?u stvarnih i prividnih života.
Iza stakla

Lažni život i prividni red jedva se održavaju u kaoti?nom neredu troje ljudi i njihove okoline. Strukturirana u pet dana, pri?a dinamikom mnogobrojnih, likovima prividno povezanih doga?aja ocrtava ljubavni trokut jednog muškarca i dvije žene. Takav prividni red života neminovno ?e se razbiti u sudaru s njihovim pravim životima koji je nepredvidiv...


\'Iza stakla\', trailer

Film je svjetsku premijeru imao na festivalu u Karlovym Varyma, a na nacionalnom festivalu u Puli osvojio je Zlatnu arenu za najbolju kameru (Davorin Gecl) i za glavnu žensku ulogu (Jadranka ?oki?), te Nagradu mladih filmofila za najbolji film. I kriti?ari su ga hvalili i stavili su ga na 2. mjesto me?u filmovima iz nacionalne konkurencije, odmah iza pobjedni?kog \'Ni?ijeg sina\'. To se dogodilo iako je nedavno u jednom intervjuu Ogresta stoi?ki izjavio da je prihvatio da ga kritika ne voli - a baš sada dolaze recenzije koje jako hvale film.

Damir Radi? (Nacional) ga je proglasio \'najboljim filmom Pulskog festivala\', u kojem je \'sve besprijekorno - od ideje preko scenarija do režije i glume\'. Isti?e i \'autenti?nost u slikanju emocionalnog, duhovnog i prostornog miljea gra?anskog Zagreba\', te \'vrsno?u gluma?kih izvedbi\'. Janko Heidl (Ve?ernji list) tako?er hvali \'siguran redateljski nastup\' i upe?atljive glumce, isti?u?i prije svih Jadranku ?oki?. Pali su i sitni prigovori, pa Nenad Polimac (Jutarnji list) zamjera Ogresti da se previše osje?a \'prora?unatost\', no svejedno uspore?uje film s francuskim melodramama i ocjenjuje ga \'produkcijski impresivnim\' i \'vizualno dotjeranim\'. Nedavno je i iz Motovuna došao dobar znak za film - osvojio je Nagradu publike, što je najbolja preporuka filmu koji po?inje igrati u hrvatskim kinima.




Info

Originalni naslov:
Iza stakla

Žanr:
drama

Uloge:
Leon Lu?ev, Jadranka ?oki?, Daria Lorenci, Anja Šovagovi?-Despot, Božidarka Frait, Nina Violi?, Dara Vuki?, Boris Svrtan, Krešimir Miki?, Bojan Navojec, Trpimir Jurki?

Režija:
Zrinko Ogresta

Scenarij:
Lada Kaštelan, Zrinko Ogresta

Producent/i:
Ivan Malo?a

Trajanje:
80\'

Godina izdanja:
2008.

Zemlja:
Hrvatska

Izdava?/Distributer:
Inter film/Blitz film i video


Format : AVI
Format/Info : Audio Video Interleave
File size : 532 MiB
Duration : 1h 14mn
Overall bit rate : 996 Kbps

Video
Format : MPEG-4 Visual
Format settings, BVOP : Yes
Format settings, QPel : No
Format settings, GMC : No warppoints
Format settings, Matrix : Default
Codec ID : DX50
Codec ID/Hint : DivX 5
Duration : 1h 14mn
Bit rate : 794 Kbps
Width : 720 pixels
Height : 480 pixels
Display aspect ratio : 1.500
Frame rate : 25.000 fps
Standard : NTSC
Resolution : 24 bits
Colorimetry : 4:2:0
Scan type : Progressive
Bits/(Pixel*Frame) : 0.092
Stream size : 424 MiB (80%)
Writing library : DivX 2816

Audio
Format : MPEG Audio
Format version : Version 1
Format profile : Layer 3
Codec ID : 55
Codec ID/Hint : MP3
Duration : 1h 14mn
Bit rate mode : Constant
Bit rate : 192 Kbps
Channel(s) : 2 channels
Sampling rate : 44.1 KHz
Resolution : 16 bits
Video delay : 26ms
Stream size : 103 MiB (19%)
Alignment : Split accross interleaves
Interleave, duration : 40 ms (1.00 video frame)
Title : Audio Stream
Writing library : LAME3.97


related torrents

Torrent name

health leech seeds Size

Iza Stakla (2008)

0 0 698.88 MB 0
 

comments (0)

Main Menu