Drama

DODES'KA DEN[DVDRip][H264@AAC][h33t][cybermonk]

  • Download 5x Faster
  • Download torrent
  • Direct Download
  • Rate this torrent +  |  -
DODES'KA DEN[DVDRip][H264@AAC][h33t][cybermonk]

Anonymous and Free Direct Download


Torrent info

Name:DODES'KA DEN[DVDRip][H264@AAC][h33t][cybermonk]

Total Size: 1.24 GB

Magnet: Magnet Link

Seeds: 0

Leechers: 0

Stream: Watch Online @ Movie4u

Last Updated: 2010-08-07 12:29:18 (Update Now)

Torrent added: 2009-09-02 06:53:15



VPN For Torrents

Torrent Files List


DODES'KA-DEN.mp4 (Size: 1.24 GB) (Files: 7)

 DODES'KA-DEN.mp4

1.24 GB

 Dodes'ka-den.sha-1.txt

0.06 KB

 Dodes'ka-den.sub

61.05 KB

 Dodes'ka-Den.txt

1.67 KB

 DODES'KA-DEN[DVDRip][H264@AAC][h33t][cybermonk].md5

0.40 KB

 DODES'KA-DEN[DVDRip][H264@AAC][h33t][cybermonk].sfv

0.33 KB

 tracked_by_h33t_com.txt

0.02 KB
 

Announce URL: http://www.h33t.com:3310/announce

Torrent description

*******************************************
General
*******************************************
Complete name : DODES'KA-DEN.mp4
Format : MPEG-4
Format profile : Base Media
Codec ID : isom
File size : 1.24 GiB
Duration : 2h 7mn
Overall bit rate : 1389 Kbps
Movie name : DODES'KA-DEN
*******************************************
Video
*******************************************
Format : AVC
Format/Info : Advanced Video Codec
Format profile : Baseline@L3.0
Format settings, CABAC : No
Format settings, ReFrames : 1 frame
Codec ID : avc1
Duration : 2h 7mn
Bit rate mode : Variable
Bit rate : 1225 Kbps
Width : 720 pixels
Height : 576 pixels
Display aspect ratio : 5/4
Frame rate mode : Constant
Frame rate : 25.000 fps
Standard : PAL
Colorimetry : 4:2:0
Scan type : Progressive
Bits/(Pixel*Frame) : 0.118
Stream size : 1.09 GiB (88%)
**********************************************
Audio
**********************************************
Format : AAC
Format/Info : Advanced Audio Codec
Format version : Version 4
Format profile : LC
Format settings, SBR : No
Codec ID : 40
Duration : 2h 7mn
Bit rate mode : Variable
Bit rate : 160 Kbps
Channel(s) : 2 channels
Channel positions : L R
Sampling rate : 48.0 KHz
Resolution : 16 bits
Stream size : 146 MiB (12%)
**********************************************

related torrents

Torrent name

health leech seeds Size
 


comments (0)

Main Menu