Drama

Daughters of the Wind [Filhas do Vento (2004)] Joel Zito Araujo Brazil

  • Download 5x Faster
  • Download torrent
  • Direct Download
  • Rate this torrent +  |  -
Daughters of the Wind [Filhas do Vento (2004)] Joel Zito Araujo Brazil

Free and Direct Download with Usenet 300GB+ free


Torrent info

Name:Daughters of the Wind [Filhas do Vento (2004)] Joel Zito Araujo Brazil

Total Size: 897.47 MB

Magnet: Magnet Link

Seeds: 0

Leechers: 0

Stream: Watch Online @ Movie4u

Last Updated: 2010-09-09 23:31:33 (Update Now)

Torrent added: 2009-09-02 05:40:18




Torrent Files List


Daughters of the Wind [Filhas do Vento (2004)].Joel Zito Araujo.Br - info.txt (Size: 897.47 MB) (Files: 10)

 Daughters of the Wind [Filhas do Vento (2004)].Joel Zito Araujo.Br - info.txt

6.67 KB

 Daughters of the Wind [Filhas do Vento (2004)].Joel Zito Araujo.Br.85.dra.DvdRip.Subs[en-fr-pt-sp].ipiau.avi

887.42 MB

 Daughters of the Wind [Filhas do Vento (2004)].Joel Zito Araujo.Br.85.dra.DvdRip.Subs[en-fr-pt-sp].ipiau.idx

163.47 KB

 Daughters of the Wind [Filhas do Vento (2004)].Joel Zito Araujo.Br.85.dra.DvdRip.Subs[en-fr-pt-sp].ipiau.sub

8.99 MB

 filhas-poster.jpg

36.40 KB

 filhas1.JPG

34.95 KB

 filhas2.JPG

41.28 KB

 filhas3.JPG

40.67 KB

 filhas4.JPG

47.85 KB

 VobSub_2.23.exe

716.95 KB
 

Announce URL: http://open.tracker.thepiratebay.org/announce

Torrent description

General
Complete name : Daughters of the Wind [Filhas do Vento (2004)].Joel Zito Araujo.Br.85.dra.DvdRip.Subs[en-fr-pt-sp].ipiau.avi
Format : AVI
Format/Info : Audio Video Interleave
File size : 887 MiB
Duration : 1h 23mn
Overall bit rate : 1 479 Kbps
Writing application : FairUse Wizard - http://fairusewizard.com
Writing library : The best and REALLY easy backup tool

Video
Format : AVC
Format/Info : Advanced Video Codec
Format profile : [email protected]
Format settings, CABAC : Yes
Format settings, ReFrames : 2 frames
Codec ID : H264
Duration : 1h 23mn
Bit rate : 1 083 Kbps
Width : 640 pixels
Height : 368 pixels
Display aspect ratio : 16/9
Frame rate : 29.970 fps
Resolution : 24 bits
Colorimetry : 4:2:0
Scan type : Progressive
Bits/(Pixel*Frame) : 0.153
Stream size : 650 MiB (73%)
Writing library : x264 core 58 svn-736bm
Encoding settings : cabac=1 / ref=1 / deblock=1:0:0 / analyse=0x1:0x131 / me=hex / subme=5 / brdo=0 / mixed_ref=0 / me_range=16 / chroma_me=1 / trellis=1 / 8x8dct=0 / cqm=0 / deadzone=21,11 / chroma_qp_offset=0 / threads=1 / nr=0 / decimate=1 / mbaff=0 / bframes=2 / b_pyramid=0 / b_adapt=1 / b_bias=0 / direct=1 / wpredb=1 / bime=0 / keyint=250 / keyint_min=25 / scenecut=40 / rc=2pass / bitrate=1083 / ratetol=1.0 / rceq='blurCplx^(1-qComp)' / qcomp=0.60 / qpmin=10 / qpmax=51 / qpstep=4 / cplxblur=20.0 / qblur=0.5 / ip_ratio=1.40 / pb_ratio=1.30

Audio
Format : AC-3
Format/Info : Audio Coding 3
Codec ID : 2000
Duration : 1h 23mn
Bit rate mode : Constant
Bit rate : 384 Kbps
Channel(s) : 6 channels
Channel positions : Front: L C R, Surround: L R, LFE
Sampling rate : 48.0 KHz
Stream size : 230 MiB (26%)
Alignment : Split accross interleaves
Interleave, duration : 33 ms (1.00 video frame)
Interleave, preload duration : 500 ms

----------------------------------------------------------------------------------------

"Daughters of the Wind [Filhas do Vento (2004)].Joel Zito Araujo.Br.85.dra"


A saga das relações familiares vividas por uma família brasileira ao longo de 4 décadas. Uma história de amor, racismo, incompreensão, machismo e sonhos.

- SINOPSE -

A tale about redemption between sisters, mothers, and daughters, telling the stories of three female protagonists, starting at a funeral in the present and traversing back and forth between contemporary time and the 1960s and ‘70s.

...

Uma lírica história de redenção amorosa entre irmãs, mães e filhas. Reunindo o maior elenco negro da História do Cinema Brasileiro, o filme aborda temas pertinentes às mulheres de qualquer parte do mundo. Mas, em uma pequena cidade do interior de Minas Gerais, os fantasmas da escravidão e do racismo acentuam os dramas das personagens de forma sutil e poderosa. Em uma impactante peça ficcional de cunho político e social, o diretor Joel Zito Araújo, substitui os papéis estereotipados, comumente interpretados por atores negros nas telenovelas brasileiras, por uma rica e multifacetada construção de personagens, mesmo quando habilmente emprega diversos recursos da dramaturgia da telenovela para se comunicar com grandes audiências.

As irmãs "Cida"/Maria Aparecida (Taís Araújo) e "Ju"/Maria da Ajuda (Thalma de Freitas) têm objetivos bem distintos. A primeira quer se tornar uma famosa atriz e para isto é imperativo que deixe o lugarejo, já a segunda só pensa em namorar. Vivem com Zé das Bicicletas (Mílton Gonçalves), o pai delas, que foi abandonado pela mulher e é muito rigoroso com o comportamento das filhas. Quando ele acusa injustamente Cida de estar se envolvendo com Marquinhos (Rocco Pitanga), o namorado de Ju, ela fica tão magoada que deixa a cidade e vai para o Rio de Janeiro na esperança de ser atriz, e consegue. A vida de cada irmã seguiu seu curso e elas ficam sem se falar por mais de 40 anos, até que um triste acontecimento mudará novamente os rumos de seus relacionamentos.

FILHAS DO VENTO é uma história de amores, mágoas, ressentimentos e redenção entre quatro mulheres negras. Uma história universal, capaz de ser partilhada por qualquer mãe, irmã ou filha, de qualquer ponto do planeta, não fosse pelo fantasma que ronda suas vidas, o racismo "sutil" e o machismo. É este fantasma que cria o cenário peculiar, acentuando o sofrimento e a dificuldade de saída para estas mulheres.


Fonte:
webcine.com.br
adorocinemabrasileiro.com.br
adorocinema.com/filmes/filhas-do-vento/filhas-do-vento.asp

- FICHA TECNICA –

Direção
Joel Zito Araújo

Elenco
Milton Gonçalves - Zé das Bicicleta
Ruth de Souza - Cida"/Maria Aparecida (idosa)
Lea Garcia - "Ju"/Maria da Ajuda (idosa)
Taís Araújo – “Cida"/Maria Aparecida
Thalma de Freitas - "Ju"/Maria da Ajuda
Maria Ceiça - Selminha
Danielle Ornelas - Dorinha
Rocco Pitanga - Marquinhos
Zózimo Bulbul – Marquinhos (idoso)
Jonas Bloch...
Kadu Carneiro...
Cida Moreno...
Kenya Costa...
Mônica Freitas...
Vitória Viana...
Beatriz Almeida...


Equipe Técnica

Roteiro: Di Moretti
Argumento original: Joel Zito Araújo
Direção de fotografia: Jacob Sarmento Solitrenick
Som direto: Toninho Murici
Edição de som: Daniel Mazucca
Montagem: Isabela Monteiro de Castro
Direção de arte: Andréa Veloso
Música: Marcos Viana
Produção: Márcio Curi e Carla Gomide
Ano de produção: 2004
Duração: 85 minutos
Distribuição em cinema: Riofilme

- PREMIOS -


32º Festival de Gramado (2004) Cinema Brasileiro e Latino

- Joel Zito Araújo - prêmio de melhor diretor;
- Milton Gonçalves - prêmio de melhor ator;
- Léa Garcia - prêmio de melhor atriz;
- Ruth de Souza - prêmio de melhor atriz;
- Taís Araújo - prêmio de melhor atriz coadjuvante;
- Thalma de Freitas - prêmio de melhor atriz coadjuvante;
- Rocco Pitanga - prêmio de melhor ator coadjuvante
- e Prêmio Da Crítica de Melhor Filme.

Fonte: http://www.festivaldegramado.net/festival/2004

- Melhor Roteiro do 2º Paratycine (2005)
- Melhor Filme do 8º Festival de Tiradentes (2005)
Fonte: http://www.icumam.com.br/III_curso_cinema/cv_di_moretti.htm


related torrents

Torrent name

health leech seeds Size
 

comments (0)

Main Menu