Drama

Das Phantom der Oper 2004 German 1080p BluRay x264 DETAiLS

  • Download 5x Faster
  • Download torrent
  • Direct Download
  • Rate this torrent +  |  -
Das Phantom der Oper 2004 German 1080p BluRay x264 DETAiLS

Free and Direct Download with Usenet.nl 300GB+ free


Torrent info

Name:Das Phantom der Oper 2004 German 1080p BluRay x264 DETAiLS

Total Size: 12.32 GB

Magnet: Magnet Link

Seeds: 0

Leechers: 0

Stream: Watch Online @ Movie4u

Last Updated: 2015-11-25 02:40:47 (Update Now)

Torrent added: 2009-09-02 05:39:16





Torrent Files List


Das.Phantom.der.Oper.2004.German.1080p.BluRay.x264-DETAiLS.mkv (Size: 12.32 GB) (Files: 2)

 Das.Phantom.der.Oper.2004.German.1080p.BluRay.x264-DETAiLS.mkv

12.32 GB

 Das.Phantom.der.Oper.2004.German.1080p.BluRay.x264-DETAiLS.nfo

6.30 KB
 

tracker

leech seeds
 

Torrent description

Das.Phantom.der.Oper.2004.German.1080p.BluRay.x264-DETAiLS



Eine ergreifende Dreiecksgeschichte, in deren Mittelpunkt die schöne junge Opernsängerin Christine (Emmy Rossum) steht. Hin- und hergerissen zwischen ihrer Jugendliebe Raoul (Patrick Wilson) und dem geheimnisvollen Phantom (Gerard Butler), einem Maskierten, der versteckt unter der Opernbühne lebt, wird ihr die Sehnsucht, die sie in dem entstellten musikalischen Genie weckt, zum lebensbedrohlichen Verhängnis.



File size : 12.3 GiB
Duration : 2h 21mn
Overall bit rate : 12.5 Mbps
Encoded date : UTC 2008-07-22 08:08:16
Writing application : mkvmerge v2.2.0 ('Turn It On Again') built on Mar 4 2008 12:58:26
Writing library : libebml v0.7.7 + libmatroska v0.8.1

Video
ID : 1
Format : AVC
Format/Info : Advanced Video Codec
Format profile : [email protected]
Format settings, CABAC : Yes
Format settings, ReFrames : 4 frames
Muxing mode : Container [email protected]
Codec ID : V_MPEG4/ISO/AVC
Duration : 2h 20mn
Bit rate : 10.7 Mbps
Nominal bit rate : 11.0 Mbps
Width : 1 920 pixels
Height : 800 pixels
Display aspect ratio : 2.400
Frame rate : 23.976 fps
Resolution : 24 bits
Colorimetry : 4:2:0
Scan type : Progressive
Bits/(Pixel*Frame) : 0.291
Stream size : 10.6 GiB (86)
Writing library : x264 core 60 r895M 16b8f79


Audio
ID : 2
Format : DTS
Format/Info : Digital Theater Systems
Codec ID : A_DTS
Duration : 2h 21mn
Bit rate mode : Constant
Bit rate : 1 536 Kbps
Channel(s) : 6 channels
Channel positions : Front: L C R, Surround: L R, LFE
Sampling rate : 48.0 KHz
Resolution : 16 bits
Stream size : 1.51 GiB (12)

related torrents

Torrent name

health leech seeds Size
 

comments (0)

Main Menu