Drama

Dakota Skye 2008 DVDRIP XviD ZEKTORM

  • Download 5x Faster
  • Download torrent
  • Direct Download
  • Rate this torrent +  |  -
Dakota Skye 2008 DVDRIP XviD ZEKTORM

Download FREE And Anonymously


Torrent info

Name:Dakota Skye 2008 DVDRIP XviD ZEKTORM

Total Size: 706.04 MB

Magnet: Magnet Link

Seeds: 2

Leechers: 1

Stream: Watch Full Movie @ Movie4u

Last Updated: 2015-09-10 03:00:49 (Update Now)

Torrent added: 2009-09-02 05:29:53



VPN For Torrents

Torrent Files List


DS-ZEKTORM.avi (Size: 706.04 MB) (Files: 5)

 DS-ZEKTORM.avi

700.90 MB

 READ.hlp

11.12 KB

 Subs

  DS-ZEKTORM.idx

54.56 KB

  DS-ZEKTORM.sub

5.08 MB

 Torrent downloaded from Demonoid.com.txt

0.05 KB
 

tracker

leech seeds
 

Torrent description

Title : Dakota Skye
Year : 2008
Genre : Drama
iMDB URL : http://www.imdb.com/title/tt0907848/
Awards : 2 wins

Complete name : DS-ZEKTORM.avi
Format : AVI
File size : 701 MiB
Duration : 1h 28mn
Overall bit rate : 1103 Kbps
Subtitles : English (Format: VobSub)
Source : DVD NTSC

Video
Format : MPEG-4 Visual
Format profile : Streaming [email protected]
Codec ID : XVID
Codec ID/Hint : XviD
Duration : 1h 28mn
Bit rate : 982 Kbps
Width : 720 pixels
Height : 416 pixels
Display aspect ratio : 16/9
Frame rate : 23.976 fps
Resolution : 24 bits
Colorimetry : 4:2:0
Scan type : Progressive
Bits/(Pixel*Frame) : 0.137
Stream size : 624 MiB (89%)
Writing library : XviD

Audio
Format : MPEG Audio
Format version : Version 1
Format profile : Layer 3
Codec ID : 55
Codec ID/Hint : MP3
Duration : 1h 28mn
Bit rate mode : Variable
Bit rate : 108 Kbps
Minimum bit rate : 128 Kbps
Channel(s) : 2 channels
Sampling rate : 48.0 KHz
Resolution : 16 bits
Stream size : 68.5 MiB (10%)
Writing library : LAME3.98r
Encoding settings : ABR

related torrents

Torrent name

health leech seeds Size
 


comments (0)

Main Menu

 

script data-cfasync="false" src="//d2ghscazvn398x.cloudfront.net/?cshgd=690275">