Drama

D W Griffith Intolerance (1916) DVDRip x264

  • Download 5x Faster
  • Download torrent
  • Direct Download
  • Rate this torrent +  |  -
D W Griffith Intolerance (1916) DVDRip x264

Anonymous and Free Direct Download 300GB+


Torrent info

Name:D W Griffith Intolerance (1916) DVDRip x264

Total Size: 2.91 GB

Magnet: Magnet Link

Seeds: 0

Leechers: 0

Stream: Watch Online @ Movie4u

Last Updated: 0000-00-00 00:00:00 (Update Now)

Torrent added: 2009-09-02 05:27:09



VPN For Torrents

Torrent Files List


Intolerance.1916.DVDRip.x264.AC3.Eng.Extras.mkv (Size: 2.91 GB) (Files: 3)

 Intolerance.1916.DVDRip.x264.AC3.Eng.Extras.mkv

2.91 GB

 Intolerance.1916.DVDRip.x264.AC3.Eng.Extras.Rus.srt

32.19 KB

 Some Extras.pdf

1.14 MB
 

Announce URL:

Torrent description

Notice: make sure your PC can play x264 encodes.

Source: Kino Edition
English intertitles, Russian subs
Extras included

General
Complete name : E:VideosIntolerance.1916Intolerance.1916.DVDRip.x264.AC3.Eng.Extras.mkv
Format : Matroska
File size : 2.91 GiB
Duration : 3h 31mn
Overall bit rate : 1 970 Kbps
Encoded date : UTC 2009-05-29 07:24:50
Writing application : mkvmerge v2.8.0 ('The Tree') built on May 9 2009 16:17:12
Writing library : libebml v0.7.7 + libmatroska v0.8.1

Video
ID : 1
Format : AVC
Format/Info : Advanced Video Codec
Format profile : [email protected]
Format settings, CABAC : Yes
Format settings, ReFrames : 16 frames
Muxing mode : Container [email protected]
Codec ID : V_MPEG4/ISO/AVC
Duration : 3h 31mn
Bit rate : 1 739 Kbps
Nominal bit rate : 1 777 Kbps
Width : 704 pixels
Height : 480 pixels
Display aspect ratio : 4/3
Frame rate : 29.970 fps
Resolution : 24 bits
Colorimetry : 4:2:0
Scan type : Progressive
Bits/(Pixel*Frame) : 0.172
Stream size : 2.57 GiB (88%)
Writing library : x264 core 67 r1153M 7b6ce6a
Encoding settings : cabac=1 / ref=16 / deblock=1:0:0 / analyse=0x3:0x133 / me=esa / subme=8 / psy_rd=1.0:0.0 / mixed_ref=1 / me_range=16 / chroma_me=1 / trellis=2 / 8x8dct=1 / cqm=0 / deadzone=21,11 / chroma_qp_offset=-2 / threads=3 / nr=0 / decimate=1 / mbaff=0 / bframes=6 / b_pyramid=1 / b_adapt=2 / b_bias=0 / direct=3 / wpredb=1 / keyint=290 / keyint_min=29 / scenecut=40 / rc=2pass / bitrate=1777 / ratetol=1.0 / qcomp=0.60 / qpmin=10 / qpmax=51 / qpstep=4 / cplxblur=20.0 / qblur=0.5 / ip_ratio=1.40 / pb_ratio=1.30 / aq=1:1.00

Audio
ID : 2
Format : AC-3
Format/Info : Audio Coding 3
Codec ID : A_AC3
Duration : 3h 31mn
Bit rate mode : Constant
Bit rate : 192 Kbps
Channel(s) : 2 channels
Channel positions : L R
Sampling rate : 48.0 KHz
Stream size : 290 MiB (10%)
Language : English

Menu
03:17:43.000 : :Itroduction by Orson Welles
03:22:16.000 : :Excerpt of Cabiria (1914)
03:27:17.000 : :Excerpt of The Last Days of Popeii (1913)
03:30:29.000 : :Excerpt of The Fall of Babylon (alt.ending)

*********************************** FREAKYFLICKS ************************************

'If we all seed just 1:1, give at least what we take, this torrent will NEVER DIE'

related torrents

Torrent name

health leech seeds Size
 


comments (0)

Main Menu