Drama

Crash DVDRip Xvid (eng) (2005)[

  • Download 5x Faster
  • Download torrent
  • Direct Download
  • Rate this torrent +  |  -
Crash DVDRip Xvid (eng) (2005)[

Free and Direct Download with Usenet 300GB+ free


Torrent info

Name:Crash DVDRip Xvid (eng) (2005)[

Total Size: 707.36 MB

Magnet: Magnet Link

Seeds: 0

Leechers: 0

Stream: Watch Online @ Movie4u

Last Updated: 2011-07-29 09:22:56 (Update Now)

Torrent added: 2009-09-02 05:15:12




Torrent Files List


Crash - DVDRip Xvid (eng) (2005).nfo (Size: 707.36 MB) (Files: 52)

 Crash - DVDRip Xvid (eng) (2005).nfo

2.72 KB

 Crash - DVDRip Xvid (Eng) (2005).r00

14.31 MB

 Crash - DVDRip Xvid (Eng) (2005).r01

14.31 MB

 Crash - DVDRip Xvid (Eng) (2005).r02

14.31 MB

 Crash - DVDRip Xvid (Eng) (2005).r03

14.31 MB

 Crash - DVDRip Xvid (Eng) (2005).r04

14.31 MB

 Crash - DVDRip Xvid (Eng) (2005).r05

14.31 MB

 Crash - DVDRip Xvid (Eng) (2005).r06

14.31 MB

 Crash - DVDRip Xvid (Eng) (2005).r07

14.31 MB

 Crash - DVDRip Xvid (Eng) (2005).r08

14.31 MB

 Crash - DVDRip Xvid (Eng) (2005).r09

14.31 MB

 Crash - DVDRip Xvid (Eng) (2005).r10

14.31 MB

 Crash - DVDRip Xvid (Eng) (2005).r11

14.31 MB

 Crash - DVDRip Xvid (Eng) (2005).r12

14.31 MB

 Crash - DVDRip Xvid (Eng) (2005).r13

14.31 MB

 Crash - DVDRip Xvid (Eng) (2005).r14

14.31 MB

 Crash - DVDRip Xvid (Eng) (2005).r15

14.31 MB

 Crash - DVDRip Xvid (Eng) (2005).r16

14.31 MB

 Crash - DVDRip Xvid (Eng) (2005).r17

14.31 MB

 Crash - DVDRip Xvid (Eng) (2005).r18

14.31 MB

 Crash - DVDRip Xvid (Eng) (2005).r19

14.31 MB

 Crash - DVDRip Xvid (Eng) (2005).r20

14.31 MB

 Crash - DVDRip Xvid (Eng) (2005).r21

14.31 MB

 Crash - DVDRip Xvid (Eng) (2005).r22

14.31 MB

 Crash - DVDRip Xvid (Eng) (2005).r23

14.31 MB

 Crash - DVDRip Xvid (Eng) (2005).r24

14.31 MB

 Crash - DVDRip Xvid (Eng) (2005).r25

14.31 MB

 Crash - DVDRip Xvid (Eng) (2005).r26

14.31 MB

 Crash - DVDRip Xvid (Eng) (2005).r27

14.31 MB

 Crash - DVDRip Xvid (Eng) (2005).r28

14.31 MB

 Crash - DVDRip Xvid (Eng) (2005).r29

14.31 MB

 Crash - DVDRip Xvid (Eng) (2005).r30

14.31 MB

 Crash - DVDRip Xvid (Eng) (2005).r31

14.31 MB

 Crash - DVDRip Xvid (Eng) (2005).r32

14.31 MB

 Crash - DVDRip Xvid (Eng) (2005).r33

14.31 MB

 Crash - DVDRip Xvid (Eng) (2005).r34

14.31 MB

 Crash - DVDRip Xvid (Eng) (2005).r35

14.31 MB

 Crash - DVDRip Xvid (Eng) (2005).r36

14.31 MB

 Crash - DVDRip Xvid (Eng) (2005).r37

14.31 MB

 Crash - DVDRip Xvid (Eng) (2005).r38

14.31 MB

 Crash - DVDRip Xvid (Eng) (2005).r39

14.31 MB

 Crash - DVDRip Xvid (Eng) (2005).r40

14.31 MB

 Crash - DVDRip Xvid (Eng) (2005).r41

14.31 MB

 Crash - DVDRip Xvid (Eng) (2005).r42

14.31 MB

 Crash - DVDRip Xvid (Eng) (2005).r43

14.31 MB

 Crash - DVDRip Xvid (Eng) (2005).r44

14.31 MB

 Crash - DVDRip Xvid (Eng) (2005).r45

14.31 MB

 Crash - DVDRip Xvid (Eng) (2005).r46

14.31 MB

 Crash - DVDRip Xvid (Eng) (2005).r47

14.31 MB

 Crash - DVDRip Xvid (Eng) (2005).r48

6.40 MB

 Crash - DVDRip Xvid (Eng) (2005).rar

14.31 MB

 Crash - DVDRip Xvid (eng) (2005).sfv

6.11 KB
 

Announce URL: http://tracker.ilovetorrents.com/announce.php

Torrent description

General:
Format : AVI
Format/Info : Audio Video Interleave
File size : 700 MiB
Duration : 1h 52mn
Overall bit rate : 871 Kbps
Writing application : Nandub v1.0rc2
Writing library : Nandub build 1852/release

Video
Format : MPEG-4 Visual
Format profile : Simple@L3
Format settings, BVOP : Yes
Format settings, QPel : No
Format settings, GMC : No warppoints
Format settings, Matrix : Default
Muxing mode : Packed bitstream
Codec ID : XVID
Codec ID/Hint : XviD
Duration : 1h 52mn
Bit rate : 752 Kbps
Width : 576 pixels
Height : 240 pixels
Display aspect ratio : 2.400
Frame rate : 23.976 fps
Resolution : 24 bits
Colorimetry : 4:2:0
Scan type : Progressive
Bits/(Pixel*Frame) : 0.227
Stream size : 605 MiB (86%)
Writing library : XviD 1.1.0 Beta2 (UTC 2005-04-04)

Audio
Format : MPEG Audio
Format version : Version 1
Format profile : Layer 3
Codec ID : 55
Codec ID/Hint : MP3
Duration : 1h 52mn
Bit rate mode : Variable
Bit rate : 106 Kbps
Minimum bit rate : 32.0 Kbps
Channel(s) : 2 channels
Sampling rate : 48.0 KHz
Resolution : 16 bits
Stream size : 85.1 MiB (12%)
Alignment : Aligned on interleaves
Interleave, duration : 24 ms (0.58 video frame)
Interleave, preload duration : 166 ms
Writing library : LAME3.93a
Encoding settings : VBR (mtrh)
----------------------------------------------------------------------------
Plot: A Brentwood housewife and her D.A. husband. A Persian store owner.
Two police detectives who are also lovers. An African-American television
director and his wife. A Mexican locksmith. Two car-jackers. A rookie cop.
A middle-aged Korean couple. They all live in Los Angeles.
And during the next 36 hours, they will all collide.

Genres: Drama

Running Time: 1 hr. 47 min.

Release Date: May 6th, 2005 (wide)

MPAA Rating: R for language, sexual content and some violence.

Distributors: Lionsgate

Yahoo Movies: http://movies.yahoo.com/movie/1808631706/info

related torrents

Torrent name

health leech seeds Size

Crash Eng 2005 avi

0 0 700.32 MB 0

Crash [Eng] [2005] avi

0 0 700.32 MB 0
 

comments (0)

Main Menu