Drama

Closer(2004)[DvDrip Xvid][Eng AC3 6ch][19 Subs]Omifast Greek

  • Download 5x Faster
  • Download torrent
  • Direct Download
  • Rate this torrent +  |  -
Closer(2004)[DvDrip Xvid][Eng AC3 6ch][19 Subs]Omifast Greek

Anonymous and Free Direct Download 300GB+


Torrent info

Name:Closer(2004)[DvDrip Xvid][Eng AC3 6ch][19 Subs]Omifast Greek

Total Size: 1.47 GB

Magnet: Magnet Link

Seeds: 0

Leechers: 0

Stream: Watch Online @ Movie4u

Last Updated: 0000-00-00 00:00:00 (Update Now)

Torrent added: 2009-09-02 04:50:17



VPN For Torrents

Torrent Files List


Info + Snapsots (Size: 1.47 GB) (Files: 20)

 Info + Snapsots

  Info Documents

   Closer Media Info.txt

2.05 KB

   English Info.rtf

0.45 KB

   Greek Info.doc

1.89 KB

  Snapsots

   Closer - Sample_1.jpg

38.61 KB

   Closer - Sample_10.jpg

37.16 KB

   Closer - Sample_11.jpg

43.84 KB

   Closer - Sample_12.jpg

38.04 KB

   Closer - Sample_2.jpg

50.02 KB

   Closer - Sample_3.jpg

39.61 KB

   Closer - Sample_4.jpg

39.55 KB

   Closer - Sample_5.jpg

32.45 KB

   Closer - Sample_6.jpg

46.62 KB

   Closer - Sample_7.jpg

44.70 KB

   Closer - Sample_8.jpg

41.07 KB

   Closer - Sample_9.jpg

40.71 KB

 Movie + Subs

  Closer.avi

1.37 GB

  Closer.idx

1.06 MB

  Closer.sub

66.70 MB

 Sample + Trailer

  Closer - Sample.avi

31.11 MB

  Closer - Trailer.mp4

9.06 MB
 

Announce URL:

Torrent description

SUBTITLES:

Greek
English
Espanol
Portugese
Nederlands
Arabic
Bulgarian
Hrvatski
Dansk
Suomi
Hebrew
Hindi
Islenska
Norsk
Romanian
Serbian
Slovenian
Svenska
Turkish

Movie Trailer, Sample, Snapsots, English and Greek Info.txt Included

--------------------------------------------------------------------

Closer (2004/I) DvDrip Xvid
http://www.imdb.com/title/tt0376541/

Plot: Set in contemporary London, a story of passion, drama, love, and abandonment involving four strangers--their chance meetings, instant attractions and casual betrayals.

Starring: Jude Law, Natalie Portman, Clive Owen, Julia Roberts, Nick Hobbs

-----------------------------------------------------------------------

Direct Download, Photo, Trailer, and Full Synopsis in Greek:
www.omifast-mainmovies.blogspot.com

------------------------------------------------------------------------

General

Format : AVI
Format/Info : Audio Video Interleave
File size : 1.37 GiB
Duration : 1h 39mn
Overall bit rate : 1 965 Kbps
Writing application : VirtualDubMod 1.5.4.1 (build 2178/release)
Writing library : VirtualDubMod build 2178/release

Video
ID : 0
Format : MPEG-4 Visual
Format profile : [email protected]
Format settings, BVOP : Yes
Format settings, QPel : No
Format settings, GMC : No warppoints
Format settings, Matrix : Custom
Codec ID : XVID
Codec ID/Hint : XviD
Duration : 1h 39mn
Bit rate : 1 510 Kbps
Width : 848 pixels
Height : 464 pixels
Display aspect ratio : 16:9
Frame rate : 25.000 fps
Resolution : 24 bits
Colorimetry : 4:2:0
Scan type : Progressive
Bits/(Pixel*Frame) : 0.154
Stream size : 1.05 GiB (77%)
Writing library : XviD 1.2.1 (UTC 2008-12-04)

Audio
ID : 1
Format : AC-3
Format/Info : Audio Coding 3
Codec ID : 2000
Duration : 1h 39mn
Bit rate mode : Constant
Bit rate : 448 Kbps
Channel(s) : 6 channels
Channel positions : Front: L C R, Surround: L R, LFE
Sampling rate : 48.0 KHz
Stream size : 319 MiB (23%)
Alignment : Split accross interleaves
Interleave, duration : 96 ms (2.40 video frames)
Interleave, preload duration : 96 ms
Language : English


!

related torrents

Torrent name

health leech seeds Size
 


comments (0)

Main Menu