Drama

Che Part Two (2008) DVDSCR Xvid HORIZON lletaif

  • Download 5x Faster
  • Download torrent
  • Direct Download
  • Rate this torrent +  |  -
Che Part Two (2008) DVDSCR Xvid HORIZON lletaif

Free and Direct Download with Usenet.nl 300GB+ free


Torrent info

Name:Che Part Two (2008) DVDSCR Xvid HORIZON lletaif

Total Size: 1.36 GB

Magnet: Magnet Link

Seeds: 0

Leechers: 0

Stream: Watch Online @ Movie4u

Last Updated: 2010-12-02 20:44:38 (Update Now)

Torrent added: 2009-09-02 04:31:40





Torrent Files List


Che.Part.Two.(2008).DVDSCR.Xvid.HORIZON.lletaif.avi (Size: 1.36 GB) (Files: 1)

 Che.Part.Two.(2008).DVDSCR.Xvid.HORIZON.lletaif.avi

1.36 GB
 

Announce URL: http://open.tracker.thepiratebay.org/announce

Torrent description

HORIZON, lletaif e DEVISE proudly presents

Che: Part Two 2008 Aka Guerrilla 2008

Director: Steven Soderbergh
Writers (WGA): Peter Buchman (screenplay) and
Benjamin A. van der Veen (screenplay)

Cast: Demian Bichir ... Fidel Castro

Rodrigo Santoro ... Raul Castro

Benicio Del Toro ... Ernesto Che Guevara

Catalina Sandino Moreno ... Aleida March
Maria D. Sosa ... Aledita
Raul Beltran ... Bolivian Customs Agent #1
Raul Gomez ... Bolivian Customs Agent #2
Paty M. Bellott ... Woman at Airport
Othello Rensoli ... Pombo

Franka Potente ... Tania
Norman Santiago ... Tuma

Joaquim de Almeida ... President Barrientos
Pablo Duran ... Pacho
Ezequiel Diaz ... Loro
Juan Salinas ... Polo

Runtime: 131 min

Country: Spain | France | USA

Language: Spanish | English

Plot: After helping overthrow the dictatorship of Fulgencio Batista in Cuba, Guevara moved on to foment revolutions in Africa and South America, eventually being captured and killed by counter-insurgency rangers in the mountains of Bolivia, backed by the CIA.


Release informations:
Geral
Complete name : Che.Part.Two. 2008.DVDSCR.Xvid.HORIZON.lletaif.avi
Format : AVI
Format/Info : Audio Video Interleave
File size : 1,36 GiB
Duration : 2h 0mn
Overall bit rate : 1 617 Kbps
Writing application : VirtualDubMod 1.5.10.2 (build 2540/release)
Writing library : VirtualDub build 30586/release

Video
Format : MPEG-4 Visual
Format profile : Streaming [email protected]
Format settings, BVOP : Sim
Codec ID : XVID
Codec ID/Hint : XviD
Duration : 2h 0mn
Bit rate : 1 413 Kbps
Width : 672 pixel(s)
Height : 352 pixel(s)
Display aspect ratio : 1.909
Frame rate : 29,970 fps
Resolution : 24 bits
Colorimetry : 4:2:0
Scan type : Progressivo
Bits/(Pixel*Frame) : 0.199
Stream size : 1,19 GiB (87%)
Writing library : XviD 1.1.2 (UTC 2006-11-01)

audio
Format : MPEG Audio
Format version : Version 1
Format profile : Layer 3
Codec ID : 55
Codec ID/Hint : MP3
Duration : 2h 0mn
Bit rate mode : Constante
Bit rate : 192 Kbps
Channel(s) : 2 canal/canais
Sampling rate : 44,1 KHz
Resolution : 16 bits
Video delay : 26ms
Stream size : 166 MiB (12%)
Interleave, duration : 33 ms (1.00 video frames)
Interleave, preload duration : 500 ms
Writing library : LAME3.92

related torrents

Torrent name

health leech seeds Size
 

comments (0)

Main Menu