Drama

Byron DIVX 2003 La Vela avi

  • Download 5x Faster
  • Download torrent
  • Direct Download
  • Rate this torrent +  |  -
Byron DIVX 2003 La Vela avi

Anonymous and Direct Download 300GB+ free


Torrent info

Name:Byron DIVX 2003 La Vela avi

Total Size: 2.79 GB

Magnet: Magnet Link

Seeds: 0

Leechers: 0

Stream: Watch Online @ Movie4u

Last Updated: 2010-11-03 03:11:19 (Update Now)

Torrent added: 2009-09-02 04:02:49




Torrent Files List


Byron.DIVX.2003.La.Vela.cd1.avi (Size: 2.79 GB) (Files: 6)

 Byron.DIVX.2003.La.Vela.cd1.avi

1.39 GB

 Byron.DIVX.2003.La.Vela.cd2.avi

1.41 GB

 Byron.jpg

28.85 KB

 Byron_Uk-front.jpg

279.78 KB

 Media.nfo

2.17 KB

 Thank You Info.txt

8.39 KB
 

Announce URL: http://open.tracker.thepiratebay.org/announce

Torrent description

Plot: N/A ( take a look at http://www.imdb.com/title/tt0369084/ )


General:


Complete name : Byron.DIVX.2003.La.Vela.cd1.avi

Imdb : http://www.imdb.com/title/tt0369084/
Language : English
Subtitles : N/A
Format : AVI
Format/Info : Audio Video Interleave
Format profile : OpenDML
File size : 1.39 GiB
Duration : 3h 11mn
Overall bit rate : 1 034 Kbps
Writing application : Lavf51.12.1

Video
Format : MPEG-4 Visual
Format profile : Simple@L1
Format settings, BVOP : No
Format settings, QPel : No
Format settings, GMC : No warppoints
Format settings, Matrix : Default
Codec ID : DX50
Codec ID/Hint : DivX 5
Duration : 3h 11mn
Bit rate : 932 Kbps
Width : 720 pixels
Height : 576 pixels
Display aspect ratio : 5/4
Frame rate : 25.000 fps
Standard : PAL
Resolution : 24 bits
Colorimetry : 4:2:0
Scan type : Progressive
Bits/(Pixel*Frame) : 0.090
Stream size : 1.25 GiB (90%)
Writing library : Lavc51.40.4

Audio
Format : MPEG Audio
Format version : Version 1
Format profile : Layer 3
Codec ID : 55
Codec ID/Hint : MP3
Duration : 1h 11mn
Bit rate mode : Constant
Bit rate : 256 Kbps
Channel(s) : 2 channels
Sampling rate : 48.0 KHz
Resolution : 16 bits
Stream size : 132 MiB (9%)
Alignment : Aligned on interleaves
Interleave, duration : 24 ms (0.60 video frame)
Interleave, preload duration : 24 ms

related torrents

Torrent name

health leech seeds Size
 


comments (0)

Main Menu