Drama

Babel 2006 DVDRIP ZEKTORM

  • Download 5x Faster
  • Download torrent
  • Direct Download
  • Rate this torrent +  |  -
Babel 2006 DVDRIP ZEKTORM

Download FREE And Anonymously


Torrent info

Name:Babel 2006 DVDRIP ZEKTORM

Total Size: 712.58 MB

Magnet: Magnet Link

Seeds: 13

Leechers: 3

Stream: Watch Full Movie @ Movie4u

Last Updated: 2011-11-25 16:19:06 (Update Now)

Torrent added: 2009-09-02 02:50:05



VPN For Torrents

Torrent Files List


Babel.2006.DVDRIP-ZEKTORM.mp4 (Size: 712.58 MB) (Files: 4)

 Babel.2006.DVDRIP-ZEKTORM.mp4

700.17 MB

 READ.hlp

12.95 KB

 Subs

  Babel.2006.DVDRIP-ZEKTORM.idx

212.93 KB

  Babel.2006.DVDRIP-ZEKTORM.sub

12.18 MB
 

Announce URL: http://tracker.torrentbox.com:2710/announce

Torrent description

Title : Babel
Year : 2006
Genre : Drama
iMDB Rate : User Rating: 7.7/10 73,464 votes
iMDB URL : http://www.imdb.com/title/tt0449467/
Awards : Won Oscar. Another 25 wins & 75 nominations

Complete name : Babel.2006.DVDRIP-ZEKTORM.mp4
Format : MPEG-4
Format profile : Base Media
Codec ID : isom
File size : 700 MiB
Duration : 2h 23mn
Overall bit rate : 682 Kbps
Subtitles : English, Spanish (Format: VobSub)
Source : DVD NTSC
Encoded date : UTC 2009-01-24 22:33:39

Video
Format : AVC
Format/Info : Advanced Video Codec
Format profile : [email protected]
Format settings, CABAC : Yes
Format settings, ReFrames : 10 frames
Codec ID : avc1
Codec ID/Info : Advanced Video Coding
Duration : 2h 23mn
Bit rate mode : Variable
Bit rate : 605 Kbps
Maximum bit rate : 4320 Kbps
Width : 720 pixels
Height : 480 pixels
Display aspect ratio : 16/9
Frame rate mode : Constant
Frame rate : 23.976 fps
Standard : NTSC
Resolution : 24 bits
Colorimetry : 4:2:0
Scan type : Progressive
Bits/(Pixel*Frame) : 0.073
Stream size : 621 MiB (89%)
Title : Video
Writing library : x264 core 60 r900 a9af942

Audio
Format : AAC
Format/Info : Advanced Audio Codec
Format version : Version 4
Format profile : LC
Format settings, SBR : Yes
Format settings, PS : No
Codec ID : 40
Duration : 2h 23mn
Bit rate mode : Variable
Bit rate : 74.1 Kbps
Maximum bit rate : 112 Kbps
Channel(s) : 2 channels
Channel positions : L R
Sampling rate : 48.0 KHz
Resolution : 16 bits
Stream size : 76.1 MiB (11%)
Title : English
Language : English

Notes : Convert to DVD with Nero

related torrents

Torrent name

health leech seeds Size

Babel[2006]dvdrip[eng] axxo

0 11 901.00 MB 0

Babel 2006 HDDVD 352p H264

11 14 599.91 MB 0
 


comments (0)

Main Menu

 

script data-cfasync="false" src="//d2ghscazvn398x.cloudfront.net/?cshgd=690275">