Drama

AUGUST RUSH [2008] [ENG] [AC3 5 1] [DVDRIP M333] FLAWL3SS

  • Download 5x Faster
  • Download torrent
  • Direct Download
  • Rate this torrent +  |  -
AUGUST RUSH [2008] [ENG] [AC3 5 1] [DVDRIP M333] FLAWL3SS

Free and Direct Download with Usenet.nl 300GB+ free


Torrent info

Name:AUGUST RUSH [2008] [ENG] [AC3 5 1] [DVDRIP M333] FLAWL3SS

Total Size: 996.63 MB

Magnet: Magnet Link

Seeds: 0

Leechers: 0

Stream: Watch Online @ Movie4u

Last Updated: 2010-12-03 17:35:23 (Update Now)

Torrent added: 2009-09-02 02:41:10





Torrent Files List


August Rush [2008] [Eng] [ac3 5.1] [dvdrip-M333]-flawl3ss.avi (Size: 996.63 MB) (Files: 6)

 August Rush [2008] [Eng] [ac3 5.1] [dvdrip-M333]-flawl3ss.avi

996.32 MB

 august-rush.jpg

93.54 KB

 Check us Out.txt

0.13 KB

 Find us.jpg

218.31 KB

 nfo.txt

2.91 KB

 Torrent downloaded from Demonoid.com.txt

0.05 KB
 

Announce URL:

Torrent description

AUGUST RUSH [2008] [ENG] [AC3 5 1] [DVDRIP M333] FLAWL3SS preview 0

General
Complete name : August Rush [2008] [Eng] [ac3 5.1] [dvdrip-M333]-flawl3ss.avi
Format : AVI
Format/Info : Audio Video Interleave
File size : 996 MiB
Duration : 1h 53mn
Overal bit rate : 1226 Kbps
Movie name : August Rush [2008] [Eng] [ac3 5.1] [dvdrip-M333]-flawl3ss
Director : M333
Writing application : M333-FLAWL3SS_RG
Copyright : M333-FLAWL3SS_RG
Comment : Ripped By M333-FLAWL3SS_RG
Product : AUGUST RUSH

Video
Format : MPEG-4 Visual
Format profile : [email protected]
Format settings, BVOP : No
Format settings, QPel : No
Format settings, GMC : No warppoints
Format settings, Matrix : Default
Codec ID : XVID
Codec ID/Hint : XviD
Duration : 1h 53mn
Bit rate : 767 Kbps
Width : 1024 pixels
Height : 418 pixels
Display aspect ratio : 2.450
Frame rate : 25.000 fps
Resolution : 8 bits
Colorimetry : 4:2:0
Scan type : Progressive
Bits/(Pixel*Frame) : 0.072
Stream size : 623 MiB
Writing library : XviD 1.1.2 (UTC 2006-11-01)

Audio
Format : AC-3
Format/Info : Audio Coding 3
Codec ID : 2000
Duration : 1h 53mn
Bit rate mode : Constant
Bit rate : 448 Kbps
Channel(s) : 6 channels
Channel positions : Front: L C R, Rear: L R, LFE
Sampling rate : 48.0 KHz
Stream size : 364 MiB
Language : english

Trackers

http://tpb.tracker.thepiratebay.org:80/announce

http://denis.stalker.h3q.com:6969/announce

http://open.tracker.thepiratebay.org/announce

http://www.torrentsnipe.info:2701/announce

http://open.tracker.thepiratebay.org/announce

http://vip.tracker.thepiratebay.org:80/announce

http://inferno.demonoid.com:3390/announce


Screen Shots

AUGUST RUSH [2008] [ENG] [AC3 5 1] [DVDRIP M333] FLAWL3SS preview 1

AUGUST RUSH [2008] [ENG] [AC3 5 1] [DVDRIP M333] FLAWL3SS preview 2

AUGUST RUSH [2008] [ENG] [AC3 5 1] [DVDRIP M333] FLAWL3SS preview 3

AUGUST RUSH [2008] [ENG] [AC3 5 1] [DVDRIP M333] FLAWL3SS preview 4

AUGUST RUSH [2008] [ENG] [AC3 5 1] [DVDRIP M333] FLAWL3SS preview 5

IMDB

http://www.imdb.com/title/tt0426931/

Trailer

http://www.imdb.com/title/tt0426931/trailers-imdb-vi380764441

Hash 702AB91844F03636B6B465520CBCBAC0C951949D

related torrents

Torrent name

health leech seeds Size
 

comments (0)

Main Menu