Drama

Au revoir les enfants (1987) hard coded eng subs

  • Download 5x Faster
  • Download torrent
  • Direct Download
  • Rate this torrent +  |  -
Au revoir les enfants (1987) hard coded eng subs

Anonymous and free Direct Download 300GB+


Torrent info

Name:Au revoir les enfants (1987) hard coded eng subs

Total Size: 1.18 GB

Magnet: Magnet Link

Seeds: 0

Leechers: 0

Stream: Watch Online @ Movie4u

Last Updated: 2015-12-29 03:04:55 (Update Now)

Torrent added: 2009-09-02 02:37:53



SpyOFF VPN

Torrent Files List


ARLEposter.jpg (Size: 1.18 GB) (Files: 8)

 ARLEposter.jpg

94.13 KB

 ARLEscreencap01.jpg

71.55 KB

 ARLEscreencap02.jpg

119.62 KB

 ARLEscreencap03.jpg

83.25 KB

 ARLEscreencap04.jpg

79.44 KB

 Au revoir les enfants (1987) hard coded eng subs.mp4

1.18 GB

 info.txt

4.53 KB

 Torrent downloaded from Demonoid.com.txt

0.05 KB
 

tracker

leech seeds
 

Torrent description

Louis Malle made a lot of films about coming of age and losing childish innocence over his storied career. But none is so powerful as Au Revoir, Les Enfants, Malle's autobiographical tale of the time he spent in a Franch boarding school during the German occupation of his homeland.

The tale revolves around a new student, Jean Bonnet, and one of the other lads there, the pint-sized Julien Quentin. It's obvious to everyone that Bonnet isn't like the other kids -- he has curly hair and doesn't eat pork -- and soon enough the fact that he's Jewish is an open secret among the kids. The Catholic priests have taken him in as an act of charity, along with a few other Jewish boys living under pseudonyms now that their parents have vanished. Think of it as The Diary of Anne Frank by way of Dead Poets Society.

The Nazis make surprise inspections and eventually the subterfuge comes to an end, but not before Quentin's life is changed by the mild-mannered Bonnet. Quentin is at first a prototypical member of the French upper crust, spoiled and kept swimming in jam despite the horrors of the war raging around him. He hasn't a care in the world, and his exposure to a Jew is about as foreign to him as exposure to a camel.

But Bonnet has a subtle, yet powerful, effect on Quentin. So subtle that it's difficult to explain in words, really. Bonnet is gentle where Quentin is crass. Bonnet is happy to be in such a place as the prestigious school. Quentin takes everything for granted.

It's a bit odd, then, that Malle waited until 1987, really the twilight of his career, to make a film that obviously meant so much to him. It's unquestionably his most personal film and arguably his most powerful. But perhaps time away from World War II is what he needed to gain some perspective on his life, and on events that unfolded over 40 years earlier.

Au revoir les enfants (1987) hard coded eng subs.mp4
Format : MPEG-4
Format profile : Base Media
Codec ID : isom
File size : 1.18 GiB
Duration : 1h 44mn
Overall bit rate : 1 604 Kbps
Encoded date : UTC 2009-04-16 16:18:21
Tagged date : UTC 2009-04-16 16:18:21
Video #1
Format : AVC
Format/Info : Advanced Video Codec
Format profile : [email protected]
Format settings, CABAC : Yes
Format settings, ReFrames : 3 frames
Codec ID : avc1
Codec ID/Info : Advanced Video Coding
Duration : 1h 44mn
Bit rate mode : Variable
Bit rate : 1 536 Kbps
Maximum bit rate : 3 415 Kbps
Width : 848 pixels
Height : 512 pixels
Display aspect ratio : 1.656
Frame rate mode : Constant
Frame rate : 23.976 fps
Resolution : 24 bits
Colorimetry : 4:2:0
Scan type : Progressive
Bits/(Pixel*Frame) : 0.148
Stream size : 1.13 GiB (96%)
Writing library : x264 core 66 r1114M a933a3e
Encoding settings : cabac=1 / ref=3 / deblock=1:0:0 / analyse=0x3:0x133 / me=umh / subme=7 / psy_rd=1.0:0.0 / mixed_ref=1 / me_range=16 / chroma_me=1 / trellis=1 / 8x8dct=1 / cqm=0 / deadzone=21,11 / chroma_qp_offset=-2 / threads=1 / nr=0 / decimate=1 / mbaff=0 / bframes=3 / b_pyramid=0 / b_adapt=1 / b_bias=0 / direct=3 / wpredb=1 / keyint=250 / keyint_min=25 / scenecut=40 / rc=2pass / bitrate=1536 / ratetol=1.0 / qcomp=0.60 / qpmin=10 / qpmax=51 / qpstep=4 / cplxblur=20.0 / qblur=0.5 / vbv_maxrate=25000 / vbv_bufsize=25000 / ip_ratio=1.40 / pb_ratio=1.30 / aq=1:1.00
Encoded date : UTC 2009-04-16 16:18:21
Tagged date : UTC 2009-04-16 16:25:29
Audio #2
Format : AAC
Format/Info : Advanced Audio Codec
Format version : Version 4
Format profile : LC
Format settings, SBR : No
Codec ID : 40
Duration : 1h 44mn
Bit rate mode : Variable
Bit rate : 62.7 Kbps
Maximum bit rate : 66.9 Kbps
Channel(s) : 1 channel
Channel positions : C
Sampling rate : 24.0 KHz
Resolution : 16 bits
Stream size : 47.0 MiB (4%)
Language : French
Encoded date : UTC 2009-04-16 16:25:08
Tagged date : UTC 2009-04-16 16:25:29

related torrents

Torrent name

health leech seeds Size
 


comments (0)

Main Menu