TV - Other

20 to 1 Celebrity Chart Floppers Aussie TV September 1st, 2009

  • Download 5x Faster
  • Download torrent
  • Direct Download
  • Rate this torrent +  |  -
20 to 1 Celebrity Chart Floppers Aussie TV September 1st, 2009

Free and Direct Download with Usenet.nl 300GB+ free


Torrent info

Name:20 to 1 Celebrity Chart Floppers Aussie TV September 1st, 2009

Total Size: 511.85 MB

Magnet: Magnet Link

Seeds: 0

Leechers: 0

Stream: Watch Online @ Movie4u

Last Updated: 2016-02-04 14:12:00 (Update Now)

Torrent added: 2009-09-02 02:35:16





Torrent Files List


20 to 1 Celebrity Chart Floppers.avi (Size: 511.85 MB) (Files: 9)

 20 to 1 Celebrity Chart Floppers.avi

511.36 MB

 poster.png

289.25 KB

 01.jpg

40.04 KB

 03.jpg

33.62 KB

 02.jpg

32.55 KB

 05.jpg

28.35 KB

 07.jpg

27.52 KB

 06.jpg

25.27 KB

 04.jpg

23.84 KB
 

tracker

leech seeds
 

Torrent description

20 to 1 Celebrity Chart Floppers   Aussie TV   September 1st, 2009 preview 0


Counting down from 20 to 1 Celebrity Chart Floppers! lol



General
Complete name : 20 to 1.avi
Format : AVI
Format/Info : Audio Video Interleave
File size : 511 MiB
Duration : 45mn 31s
Overall bit rate : 1 571 Kbps
Writing application : VirtualDubMod 1.5.4.1 (build 2178/release)
Writing library : VirtualDubMod build 2178/release

Video
ID : 0
Format : MPEG-4 Visual
Format profile : Streaming [email protected]
Format settings, BVOP : Yes
Format settings, QPel : No
Format settings, GMC : No warppoints
Format settings, Matrix : Default (H.263)
Muxing mode : Packed bitstream
Codec ID : XVID
Codec ID/Hint : XviD
Duration : 45mn 31s
Bit rate : 1 371 Kbps
Width : 720 pixels
Height : 400 pixels
Display aspect ratio : 16/9
Frame rate : 25.000 fps
Resolution : 24 bits
Colorimetry : 4:2:0
Scan type : Progressive
Bits/(Pixel*Frame) : 0.190
Stream size : 446 MiB (87%)
Writing library : XviD 1.2.1 (UTC 2008-12-04)

Audio
ID : 1
Format : MPEG Audio
Format version : Version 1
Format profile : Layer 3
Codec ID : 55
Codec ID/Hint : MP3
Duration : 45mn 31s
Bit rate mode : Constant
Bit rate : 192 Kbps
Channel(s) : 2 channels
Sampling rate : 44.1 KHz
Resolution : 16 bits
Stream size : 62.5 MiB (12%)
Alignment : Split accross interleaves
Interleave, duration : 80 ms (2.00 video frames)
Interleave, preload duration : 500 ms




Screenshots:

20 to 1 Celebrity Chart Floppers   Aussie TV   September 1st, 2009 preview 1
20 to 1 Celebrity Chart Floppers   Aussie TV   September 1st, 2009 preview 2
20 to 1 Celebrity Chart Floppers   Aussie TV   September 1st, 2009 preview 3
20 to 1 Celebrity Chart Floppers   Aussie TV   September 1st, 2009 preview 4
20 to 1 Celebrity Chart Floppers   Aussie TV   September 1st, 2009 preview 5
20 to 1 Celebrity Chart Floppers   Aussie TV   September 1st, 2009 preview 6

related torrents

Torrent name

health leech seeds Size
 

comments (0)

Main Menu