Other

JELENA Dokic v Caroline Wozniacki Australian Open Tennis 2009

  • Download 5x Faster
  • Download torrent
  • Direct Download
  • Rate this torrent +  |  -
JELENA Dokic v Caroline Wozniacki Australian Open Tennis 2009

Anonymous and Free Direct Download 300GB+


Torrent info

Name:JELENA Dokic v Caroline Wozniacki Australian Open Tennis 2009

Total Size: 589.27 MB

Magnet: Magnet Link

Seeds: 0

Leechers: 0

Stream: Watch Online @ Movie4u

Last Updated: 2015-09-10 05:57:11 (Update Now)

Torrent added: 2009-09-02 02:21:17



VPN For Torrents

Torrent Files List


JELENA Dokic v Caroline Wozniacki.mp4 (Size: 589.27 MB) (Files: 1)

 JELENA Dokic v Caroline Wozniacki.mp4

589.27 MB
 

tracker

leech seeds
 

Torrent description

Format : MPEG-4
Format profile : Base Media / Version 1
Codec ID : mp41
File size : 589 MiB
Duration : 1h 34mn
Overall bit rate : 873 Kbps
Encoded date : UTC 2009-01-06 17:24:44
Tagged date : UTC 2009-01-06 17:24:44

Video
Format : MPEG-4 Visual
Format profile : Streaming [email protected]
Format settings, BVOP : Yes
Format settings, QPel : No
Format settings, GMC : No warppoints
Format settings, Matrix : Default
Codec ID : 20
Duration : 1h 34mn
Bit rate mode : Variable
Bit rate : 707 Kbps
Maximum bit rate : 2 155 Kbps
Width : 496 pixels
Height : 304 pixels
Display aspect ratio : 16/9
Frame rate mode : Constant
Frame rate : 25.000 fps
Resolution : 24 bits
Colorimetry : 4:2:0
Scan type : Progressive
Bits/(Pixel*Frame) : 0.187
Stream size : 477 MiB (81%)
Writing library : em4v 4.1.6.5
Language : English
Encoded date : UTC 2009-01-06 17:24:44
Tagged date : UTC 2009-01-06 17:24:44

Audio
Format : AAC
Format/Info : Advanced Audio Codec
Format version : Version 4
Format profile : LC
Format settings, SBR : No
Codec ID : 40
Duration : 1h 34mn
Bit rate mode : Variable
Bit rate : 160 Kbps
Maximum bit rate : 164 Kbps
Channel(s) : 2 channels
Channel positions : L R
Sampling rate : 48.0 KHz
Resolution : 16 bits
Stream size : 108 MiB (18%)
Encoded date : UTC 2009-01-06 17:24:44
Tagged date : UTC 2009-01-06 17:24:44

related torrents

Torrent name

health leech seeds Size
 


comments (0)

Main Menu