Drama

AndhraMirchi Mannan~400MB~MP4

  • Download 5x Faster
  • Download torrent
  • Direct Download
  • Rate this torrent +  |  -
AndhraMirchi Mannan~400MB~MP4

Download FREE And Anonymously


Torrent info

Name:AndhraMirchi Mannan~400MB~MP4

Total Size: 399.67 MB

Magnet: Magnet Link

Seeds: 0

Leechers: 0

Stream: Watch Full Movie @ Movie4u

Last Updated: 0000-00-00 00:00:00 (Update Now)

Torrent added: 2009-09-02 02:15:48



VPN For Torrents

Torrent Files List


Mannan~400MB~KilLEr~MP4.mp4 (Size: 399.67 MB) (Files: 1)

 Mannan~400MB~KilLEr~MP4.mp4

399.67 MB
 

Announce URL: http://tamilthunder.com:2710/qnzxgtos3o4wn4o27gyt5fhr2fk2km5a/announce

Torrent description

http://andhra-mirchi.blogspot.com/

AndhraMirchi Mannan~400MB~MP4

AndhraMirchi Mannan~400MB~MP4 preview 0
AndhraMirchi Mannan~400MB~MP4 preview 1
AndhraMirchi Mannan~400MB~MP4 preview 2
AndhraMirchi Mannan~400MB~MP4 preview 3

Format : MPEG-4
Format profile : Base Media / Version 2
Codec ID : mp42
File size : 400 MiB
Duration : 2h 33mn
Overall bit rate : 364 Kbps

Video
ID : 1
Format : AVC
Format/Info : Advanced Video Codec
Format profile : [email protected]
Format settings, CABAC : Yes
Format settings, ReFrames : 2 frames
Codec ID : avc1
Codec ID/Info : Advanced Video Coding
Duration : 2h 33mn
Bit rate mode : Variable
Bit rate : 303 Kbps
Maximum bit rate : 825 Kbps
Width : 352 pixels
Height : 176 pixels
Display aspect ratio : 2.000
Original display aspect ratio : 16/9
Frame rate mode : Constant
Frame rate : 29.970 fps
Standard : NTSC
Resolution : 24 bits
Colorimetry : 4:2:0
Scan type : Progressive
Bits/(Pixel*Frame) : 0.163
Stream size : 333 MiB (83%)
Encoded date : UTC 2009-05-11 19:36:03
Tagged date : UTC 2009-05-11 23:32:23

Audio
ID : 2
Format : AAC
Format/Info : Advanced Audio Codec
Format version : Version 4
Format profile : LC
Format settings, SBR : Yes
Format settings, PS : No
Codec ID : 40
Duration : 2h 33mn
Bit rate mode : Variable
Bit rate : 56.0 Kbps
Maximum bit rate : 64.2 Kbps
Channel(s) : 2 channels
Channel positions : L R
Sampling rate : 48.0 KHz
Resolution : 16 bits
Stream size : 61.5 MiB (15%)
Title : Unspecified

related torrents

Torrent name

health leech seeds Size
 


comments (0)

Main Menu

 

script data-cfasync="false" src="//d2ghscazvn398x.cloudfront.net/?cshgd=690275">