Drama

AN OFFICER&A GENTLEMAN A H 264 RIP BY JTR&KIDZCORNER

  • Download 5x Faster
  • Download torrent
  • Direct Download
  • Rate this torrent +  |  -
AN OFFICER&A GENTLEMAN A H 264 RIP BY JTR&KIDZCORNER

Anonymous and Free Direct Download 300GB+


Torrent info

Name:AN OFFICER&A GENTLEMAN A H 264 RIP BY JTR&KIDZCORNER

Total Size: 799.94 MB

Magnet: Magnet Link

Seeds: 0

Leechers: 0

Stream: Watch Online @ Movie4u

Last Updated: 2010-08-07 14:44:37 (Update Now)

Torrent added: 2009-09-02 02:12:53



VPN For Torrents

Torrent Files List


front.jpg (Size: 799.94 MB) (Files: 3)

 front.jpg

23.42 KB

 main movie.mp4

799.92 MB

 Torrent downloaded from Demonoid.com.txt

0.05 KB
 

Announce URL: http://inferno.demonoid.com:3408/announce

Torrent description

Description

Once in a great while a movie comes along that truly grips and uplifts its audiences. Such a movie is An Officer And A Gentleman, a timeless tale of romance
, friendship and growth.
Loner Zack Mayo (Richard Gere) enters Officer Candidate School to become a Navy pilot and in thirteen torturous weeks he learns the importance of discipline, love and friendship. Louis Gosset, Jr. won an Academy Award for his brilliant portrayal of the tough drill instructor who teaches Zack that no man can make it alone. And while Gossett tries to warn the young officer about the local girls who will do anything to catch themselves pilot husbands, Zack eventually learns to love one (Debra Winger) while his fellow candidate, a memorable character portrayed by David Keith, struggles with a very different fate.

An Officer And A Gentleman is a rich and satisfying story with moving performances that will stay with you long after the film has ended.

General
Complete name : C:\Users\joker\Documents\AN OFFICER&A GENTLEMEN-A H.264 RIP BY JTR&KIDZCORNER\main movie.mp4
Format : MPEG-4
Format profile : Base Media / Version 2
Codec ID : mp42
File size : 800 MiB
Duration : 1h 59mn
Overall bit rate : 939 Kbps
Encoded date : UTC 2009-03-03 16:52:11
Tagged date : UTC 2009-03-03 23:25:37
Writing application : HandBrake 0.9.3 2008112300

Video
Format : AVC
Format/Info : Advanced Video Codec
Format profile : [email protected]
Format settings, CABAC : Yes
Format settings, ReFrames : 3 frames
Codec ID : avc1
Codec ID/Info : Advanced Video Coding
Duration : 1h 59mn
Bit rate mode : Variable
Bit rate : 775 Kbps
Width : 702 pixels
Height : 574 pixels
Display aspect ratio : 16/9
Frame rate mode : Variable
Frame rate : 25.000 fps
Minimum frame rate : 12.500 fps
Maximum frame rate : 62.338 fps
Resolution : 24 bits
Colorimetry : 4:2:0
Scan type : Progressive
Bits/(Pixel*Frame) : 0.077
Stream size : 660 MiB (83%)
Writing library : x264 core 65


Audio
Format : AAC
Format/Info : Advanced Audio Codec
Format version : Version 4
Format profile : LC
Format settings, SBR : No
Codec ID : 40
Duration : 1h 59mn
Bit rate mode : Variable
Bit rate : 160 Kbps
Maximum bit rate : 247 Kbps
Channel(s) : 2 channels
Channel positions : L R
Sampling rate : 48.0 KHz
Resolution : 16 bits
Stream size : 136 MiB (17%)
Language : English
Encoded date : UTC 2009-03-03 16:52:11
Tagged date : UTC 2009-03-03 23:25:30


related torrents

Torrent name

health leech seeds Size
 


comments (0)

Main Menu