Drama

AmericanMeXVID1992 Bitrate1200 192mp3

  • Download 5x Faster
  • Download torrent
  • Direct Download
  • Rate this torrent +  |  -
AmericanMeXVID1992 Bitrate1200 192mp3

Anonymous and Free Direct Download 300GB+


Torrent info

Name:AmericanMeXVID1992 Bitrate1200 192mp3

Total Size: 1.24 GB

Magnet: Magnet Link

Seeds: 0

Leechers: 0

Stream: Watch Online @ Movie4u

Last Updated: 2009-12-05 18:56:23 (Update Now)

Torrent added: 2009-09-02 02:08:18



VPN For Torrents

Torrent Files List


AMERICAN_ME Esp.srt (Size: 1.24 GB) (Files: 3)

 AMERICAN_ME Esp.srt

153.15 KB

 AMERICAN_ME.avi

1.24 GB

 AMERICAN_ME.avi.txt

1.99 KB
 

Announce URL: http://open.tracker.thepiratebay.org/announce

Torrent description

General
Complete name : E:\American Me\AMERICAN_ME.avi
Format : AVI
Format/Info : Audio Video Interleave
File size : 1.24 GiB
Duration : 2h 5mn
Overall bit rate : 1405 Kbps

Video
Format : MPEG-4 Visual
Format profile : [email protected]
Format settings, BVOP : No
Format settings, QPel : No
Format settings, GMC : No warppoints
Format settings, Matrix : Default
Codec ID : XVID
Codec ID/Hint : XviD
Duration : 2h 5mn
Bit rate : 1200 Kbps
Width : 720 pixels
Height : 480 pixels
Display aspect ratio : 1.500
Frame rate : 29.970 fps
Original frame rate : 29.969 fps
Standard : NTSC
Resolution : 8 bits
Colorimetry : 4:2:0
Scan type : Progressive
Bits/(Pixel*Frame) : 0.116
Stream size : 1.05 GiB (85%)
Writing library : Magic0432

Audio
Format : MPEG Audio
Format version : Version 1
Format profile : Layer 3
Codec ID : 55
Codec ID/Hint : MP3
Duration : 2h 5mn
Bit rate mode : Constant
Bit rate : 192 Kbps
Channel(s) : 2 channels
Sampling rate : 44.1 KHz
Resolution : 16 bits
Stream size : 173 MiB (14%)
Alignment : Aligned on interleaves
Interleave, duration : 26 ms (0.78 video frame)
Writing library : LAME3.97

SEED, SEED

related torrents

Torrent name

health leech seeds Size

Jah Roots Joy (192mp3)

0 0 42.10 MB 0
 


comments (0)

Main Menu