Drama

All the Pretty Horses(2000) Quality DVDrip MULTISUBS

  • Download 5x Faster
  • Download torrent
  • Direct Download
  • Rate this torrent +  |  -
All the Pretty Horses(2000) Quality DVDrip MULTISUBS

Free and Direct Download with Usenet.nl 300GB+ free


Torrent info

Name:All the Pretty Horses(2000) Quality DVDrip MULTISUBS

Total Size: 697.32 MB

Magnet: Magnet Link

Seeds: 0

Leechers: 0

Stream: Watch Online @ Movie4u

Last Updated: 2010-11-29 23:04:52 (Update Now)

Torrent added: 2009-09-02 01:50:08





Torrent Files List


All the Pretty Horses(2000)Matt Damon+Penelope Cruz MULTISUBS_Kuth.avi (Size: 697.32 MB) (Files: 10)

 All the Pretty Horses(2000)Matt Damon+Penelope Cruz MULTISUBS_Kuth.avi

696.65 MB

 Info about this release.txt

4.65 KB

 Subtitles (optional)

  Dansk.rar

20.33 KB

  English.rar

25.20 KB

  Nederlands.rar

21.29 KB

  Norsk.rar

20.01 KB

  Notes on subtitle files.txt

2.01 KB

  Polish.rar

22.14 KB

  Suomi.rar

21.06 KB

  Svenska.rar

545.26 KB
 

Announce URL: http://tpb.tracker.thepiratebay.org/announce

Torrent description

All the Pretty Horses (2000)
DVDrip English

Optional subs in srt format:
Danish, Dutch, English, Finnish, Norwegian, Polish
Optional Swedish subs in separate idx/sub files

With Matt Damon, Penelope Cruz, Henry Thomas and Lucas Black

Original, bizarre Western drama where Matt Damon enters a doomed love relationship with Penelope Cruz as the daughter of a wealthy Mexican ranch owner. Beautiful scenery, photography and music.
Look out for promising Lucas Black (then 18), who starred here after having turned down a part in The Horse Whisperer (1998) because he would not give up his charming Alabama accent.

DVDrip, Widescreen 704x288, 2-pass, great stereo AC3.
Burn tested, runs well in both my standalone DivX players.


MediaInfo analysis:
Format/Info : Audio Video Interleave
File size : 697 MiB
Duration : 1h 52mn
Overal bit rate : 868 Kbps

Video
Format : MPEG-4 Visual
Format profile : Streaming [email protected]
Format settings, BVOP : Yes
Format settings, QPel : No
Format settings, GMC : No warppoints
Format settings, Matrix : Default
Muxing mode : Packet Bitstream
Codec ID : XVID
Codec ID/Hint : XviD
Duration : 1h 52mn
Bit rate : 730 Kbps
Width : 704 pixels
Height : 288 pixels
Display aspect ratio : 2.444
Frame rate : 25.000 fps
Resolution : 8 bits
Colorimetry : 4:2:0
Scan type : Progressive
Bits/(Pixel*Frame) : 0.144
Stream size : 586 MiB
Writing library : XviD 1.2.0.dev47 (UTC 2006-11-01)

Audio
Format : MPEG Audio
Format version : Version 1
Format profile : Layer 3
Codec ID : 55
Codec ID/Hint : MP3
Duration : 1h 52mn
Bit rate mode : Constant
Bit rate : 128 Kbps
Minimum bit rate : 128 Kbps
Channel(s) : 2 channels
Sampling rate : 48.0 KHz
Resolution : 16 bits
Stream size : 103 MiB
Writing library : LAME3.97
Encoding settings : CBR

Source: PAL retail (note that PAL/NTSC will give no problems for avi files)

Thanks again Kuthumi!
You're rips are the best, keep them coming. :)

related torrents

Torrent name

health leech seeds Size

All The Pretty Horses

0 0 696.00 MB 0
 

comments (0)

Main Menu