Other

Inside Bowie & The Spiders][Avi 6Channel][Hectorbusinspector][H33t]

  • Download 5x Faster
  • Download torrent
  • Direct Download
  • Rate this torrent +  |  -

Torrent info

Name:Inside Bowie & The Spiders][Avi 6Channel][Hectorbusinspector][H33t]

Total Size: 700.16 MB

Magnet: Magnet Link

Seeds: 1

Leechers: 2

Stream: Watch Online @ Movie4u

Last Updated: 2010-03-14 22:52:24 (Update Now)

Torrent added: 2009-09-02 01:45:59



VPN For Torrents

Torrent Files List


Bowie.txt (Size: 700.16 MB) (Files: 4)

 Bowie.txt

4.72 KB

 David.avi

700.15 MB

 introduction to us, we are not pirates.txt

4.55 KB

 tracked_by_h33t_com.txt

0.02 KB
 

Announce URL: http://www.h33t.com:3310/announce

Torrent description

David Bowie - Inside Bowie and the Spiders: 1969-1972
*****************************************************
Musical chameleon David Bowie first appeared on the British rock scene with a self-titled 1967 debut
that featured singer-songwriter
folk music typical of its era. It wasn't until 1969's SPACE ODDITY and 1970's
THE MAN WHO SOLD THE WORLD that Bowie began displaying glimpses of the unique, hard-rocking glam
sound that would further develop on 1971's HUNKY DORY and fully blossom on 1972's seminal
***********************************************************************************************************
General
Complete name : Inside Bowie & The Spiders][Avi.6Channel][Hectorbusinspector][H33t]\avi
Format : AVI
Format/Info : Audio Video Interleave
File size : 700 MiB
Duration : 1h 11mn
Overall bit rate : 1 366 Kbps
Writing application : VirtualDubMod 1.5.4.1 (build 2178/release)
Writing library : VirtualDubMod build 2178/release

Video
Format : MPEG-4 Visual
Format profile : Streaming Video@L1
Format settings, BVOP : Yes
Format settings, QPel : No
Format settings, GMC : No warppoints
Format settings, Matrix : Custom
Codec ID : XVID
Codec ID/Hint : XviD
Duration : 1h 11mn
Bit rate : 1 018 Kbps
Width : 624 pixels
Height : 352 pixels
Display aspect ratio : 16/9
Frame rate : 25.000 fps
Resolution : 24 bits
Colorimetry : 4:2:0
Scan type : Progressive
Bits/(Pixel*Frame) : 0.185
Stream size : 522 MiB (75%)
Writing library : XviD 1.2.1 (UTC 2008-12-04)

Audio #1
Format : MPEG Audio
Format version : Version 1
Format profile : Layer 3
Codec ID : 55
Codec ID/Hint : MP3
Duration : 1h 11mn
Bit rate mode : Constant
Bit rate : 112 Kbps
Channel(s) : 2 channels
Sampling rate : 44.1 KHz
Resolution : 16 bits
Stream size : 57.4 MiB (8%)
Alignment : Split accross interleaves
Interleave, duration : 80 ms (2.00 video frames)
Interleave, preload duration : 500 ms
Writing library : LAME3.98r
Encoding settings : -m j -V 4 -q 2 -lowpass 15.6 -b 112

Audio #2
Format : MPEG Audio
Format version : Version 1
Format profile : Layer 3
Codec ID : 55
Codec ID/Hint : MP3
Duration : 1h 11mn
Bit rate mode : Constant
Bit rate : 112 Kbps
Channel(s) : 2 channels
Sampling rate : 44.1 KHz
Resolution : 16 bits
Stream size : 57.4 MiB (8%)
Alignment : Split accross interleaves
Interleave, duration : 80 ms (2.00 video frames)
Interleave, preload duration : 500 ms
Writing library : LAME3.98r
Encoding settings : -m j -V 4 -q 2 -lowpass 15.6 -b 112

Audio #3
Format : MPEG Audio
Format version : Version 1
Format profile : Layer 3
Codec ID : 55
Codec ID/Hint : MP3
Duration : 1h 11mn
Bit rate mode : Constant
Bit rate : 112 Kbps
Channel(s) : 2 channels
Sampling rate : 44.1 KHz
Resolution : 16 bits
Stream size : 57.4 MiB (8%)
Alignment : Split accross interleaves
Interleave, duration : 80 ms (2.00 video frames)
Interleave, preload duration : 500 ms
Writing library : LAME3.98r
Encoding settings : -m j -V 4 -q 2 -lowpass 15.6 -b 112
***********************************************************************************************************************
Avi
6 Channel

An Independent Critical Review.

Featuring Live Archive Footage Preaviously Unavaiable On DvD.

H33t.com

Tell A Friend.

related torrents

Torrent name

health leech seeds Size
 


comments (0)

Main Menu