Drama

Akira Kurosawa Tsubaki Sanjuro (1962) DVDRip x264

  • Download 5x Faster
  • Download torrent
  • Direct Download
  • Rate this torrent +  |  -
Akira Kurosawa Tsubaki Sanjuro (1962) DVDRip x264

Anonymous and Free Direct Download 300GB+


Torrent info

Name:Akira Kurosawa Tsubaki Sanjuro (1962) DVDRip x264

Total Size: 1.46 GB

Magnet: Magnet Link

Seeds: 0

Leechers: 0

Stream: Watch Online @ Movie4u

Last Updated: 2012-09-12 07:38:58 (Update Now)

Torrent added: 2009-09-02 01:41:02



VPN For Torrents

Torrent Files List


Tsubaki.Sanjuro.1962.DVDRip.x264.AC3.Jpn.Subs.Comments.mkv (Size: 1.46 GB) (Files: 1)

 Tsubaki.Sanjuro.1962.DVDRip.x264.AC3.Jpn.Subs.Comments.mkv

1.46 GB
 

Announce URL:

Torrent description

Notice: make sure your PC can play x264 encodes.

Plot: A crafty samurai helps a young man and his fellow clansmen save his uncle, who has been framed and imprisoned by a corrupt superintendent.

Source: The Criterion Collection

Original Japanese audio, English and Russian subs + English audio commentary

General
Format : Matroska
File size : 1.46 GiB
Duration : 1h 35mn
Overall bit rate : 2 183 Kbps
Encoded date : UTC 2009-06-23 03:07:08
Writing application : mkvmerge v2.9.5 ('Tu es le seul') built on Jun 7 2009 11:07:07
Writing library : libebml v0.7.7 + libmatroska v0.8.1

Video
ID : 7
Format : AVC
Format/Info : Advanced Video Codec
Format profile : [email protected]
Format settings, CABAC : Yes
Format settings, ReFrames : 16 frames
Muxing mode : Container [email protected]
Codec ID : V_MPEG4/ISO/AVC
Duration : 1h 35mn
Bit rate : 1 751 Kbps
Nominal bit rate : 1 790 Kbps
Width : 688 pixels
Height : 352 pixels
Display aspect ratio : 2.35
Frame rate : 23.976 fps
Resolution : 24 bits
Colorimetry : 4:2:0
Scan type : Progressive
Bits/(Pixel*Frame) : 0.302
Stream size : 1.17 GiB (80%)
Writing library : x264 core 67 r1165M 6841c5e
Encoding settings : cabac=1 / ref=16 / deblock=1:0:0 / analyse=0x3:0x133 / me=esa / subme=8 / psy_rd=1.0:0.0 / mixed_ref=1 / me_range=16 / chroma_me=0 / trellis=2 / 8x8dct=1 / cqm=0 / deadzone=21,11 / chroma_qp_offset=-4 / threads=3 / nr=0 / decimate=0 / mbaff=0 / bframes=8 / b_pyramid=1 / b_adapt=2 / b_bias=0 / direct=3 / wpredb=1 / keyint=240 / keyint_min=24 / scenecut=40 / rc=2pass / bitrate=1790 / ratetol=1.0 / qcomp=0.60 / qpmin=10 / qpmax=51 / qpstep=4 / cplxblur=20.0 / qblur=0.5 / ip_ratio=1.40 / pb_ratio=1.30 / aq=1:1.00 / zones=0,856,q=40

Audio #1
ID : 1
Format : AC-3
Format/Info : Audio Coding 3
Codec ID : A_AC3
Duration : 1h 35mn
Bit rate mode : Constant
Bit rate : 192 Kbps
Channel(s) : 1 channel
Channel positions : C
Sampling rate : 48.0 KHz
Stream size : 132 MiB (9%)
Language : Japanese

Audio #2
ID : 2
Format : AC-3
Format/Info : Audio Coding 3
Codec ID : A_AC3
Duration : 1h 35mn
Bit rate mode : Constant
Bit rate : 192 Kbps
Channel(s) : 1 channel
Channel positions : C
Sampling rate : 48.0 KHz
Stream size : 132 MiB (9%)
Title : Commentary
Language : English

Text #1
ID : 3
Format : VobSub
Codec ID : S_VOBSUB
Codec ID/Info : The same subtitle format used on DVDs
Language : Russian

Text #2
ID : 4
Format : VobSub
Codec ID : S_VOBSUB
Codec ID/Info : The same subtitle format used on DVDs
Language : Russian

Text #3
ID : 5
Format : VobSub
Codec ID : S_VOBSUB
Codec ID/Info : The same subtitle format used on DVDs
Language : English

Text #4
ID : 6
Format : VobSub
Codec ID : S_VOBSUB
Codec ID/Info : The same subtitle format used on DVDs
Language : English


*********************************** FREAKYFLICKS ************************************

'If we all seed just 1:1, give at least what we take, this torrent will NEVER DIE'

related torrents

Torrent name

health leech seeds Size

Akira Kurosawa Sanjuro AVI

0 0 694.51 MB 0
 


comments (0)

Main Menu