Drama

Akira Kurosawa Shichinin no samurai (aka Seven Samurai) DVDRip XviD Jpn Subs

  • Download 5x Faster
  • Download torrent
  • Direct Download
  • Rate this torrent +  |  -

Torrent info

Name:Akira Kurosawa Shichinin no samurai (aka Seven Samurai) DVDRip XviD Jpn Subs

Total Size: 2.94 GB

Magnet: Magnet Link

Seeds: 0

Leechers: 0

Stream: Watch Online @ Movie4u

Last Updated: 0000-00-00 00:00:00 (Update Now)

Torrent added: 2009-09-02 01:40:56



SpyOFF VPN

Torrent Files List


Shichinin.no.Samurai.1954.DVDRip.XviD.Jpn.Subs.avi (Size: 2.94 GB) (Files: 3)

 Shichinin.no.Samurai.1954.DVDRip.XviD.Jpn.Subs.avi

2.92 GB

 Shichinin.no.Samurai.1954.DVDRip.XviD.Jpn.Subs.idx

240.60 KB

 Shichinin.no.Samurai.1954.DVDRip.XviD.Jpn.Subs.sub

18.47 MB
 

Announce URL:

Torrent description

One of the most beloved movie epics of all time, Akira Kurosawa's Seven Samurai (Shichinin no samurai) tells the story of a sixteenth-century village whose desperate inhabitants hire the eponymous warriors to protect them from invading bandits. This three-hour ride-featuring legendary actors Toshiro Mifune and Takashi Shimura-seamlessly weaves philosophy and entertainment, delicate human emotions and relentless action into a rich, evocative, and unforgettable tale of courage and hope.

+ Two audio commentaries: one by film scholars David Desser, Joan Mellen, Stephen Prince, Tony Rayns, and Donald Richie; the other by Japanese-film expert Michael Jeck

Source: The Criterion Collection
Size: 2/3 DVD5
Subtitles: English, Russian

General
Format : AVI
Format/Info : Audio Video Interleave
Format profile : OpenDML
File size : 2.92 GiB
Duration : 3h 27mn
Overall bit rate : 2 021 Kbps
Writing application : VirtualDubMod 1.5.10.2 (build 2542/release)
Writing library : VirtualDubMod build 2542/release

Video
Format : MPEG-4 Visual
Format profile : Streaming [email protected]
Format settings, BVOP : Yes
Format settings, QPel : No
Format settings, GMC : No warppoints
Format settings, Matrix : Default
Codec ID : XVID
Codec ID/Hint : XviD
Duration : 3h 27mn
Bit rate : 1 679 Kbps
Width : 688 pixels
Height : 464 pixels
Display aspect ratio : 4/3
Frame rate : 23.976 fps
Resolution : 24 bits
Colorimetry : 4:2:0
Scan type : Progressive
Bits/(Pixel*Frame) : 0.219
Stream size : 2.43 GiB (83%)
Writing library : XviD 1.2.1 (UTC 2008-12-04)

Audio #1
Format : AC-3
Format/Info : Audio Coding 3
Format profile : Dolby Digital
Codec ID : 2000
Duration : 3h 27mn
Bit rate mode : Constant
Bit rate : 192 Kbps
Channel(s) : 2 channels
Channel positions : L R
Sampling rate : 48.0 KHz
Stream size : 284 MiB (10%)
Alignment : Split accross interleaves
Interleave, duration : 42 ms (1.00 video frame)
Interleave, preload duration : 500 ms

Audio #2
Format : MPEG Audio
Format version : Version 1
Format profile : Layer 3
Codec ID : 55
Codec ID/Hint : MP3
Duration : 3h 27mn
Bit rate mode : Constant
Bit rate : 64.0 Kbps
Minimum bit rate : 64.0 Kbps
Channel(s) : 1 channel
Sampling rate : 48.0 KHz
Resolution : 16 bits
Stream size : 94.8 MiB (3%)
Alignment : Aligned on interleaves
Interleave, duration : 42 ms (1.00 video frame)
Interleave, preload duration : 504 ms
Writing library : LAME3.98r
Encoding settings : CBR

Audio #3
Format : MPEG Audio
Format version : Version 1
Format profile : Layer 3
Codec ID : 55
Codec ID/Hint : MP3
Duration : 3h 27mn
Bit rate mode : Constant
Bit rate : 64.0 Kbps
Minimum bit rate : 64.0 Kbps
Channel(s) : 1 channel
Sampling rate : 48.0 KHz
Resolution : 16 bits
Stream size : 94.8 MiB (3%)
Alignment : Aligned on interleaves
Interleave, duration : 42 ms (1.00 video frame)
Interleave, preload duration : 504 ms
Writing library : LAME3.98r
Encoding settings : CBR

*********************************** FREAKYFLICKS ************************************

Freakyflicks is a free and open community dedicated to preserving and sharing cinematic art in the digital era. Our goal is to disseminate such works of art to the widest audience possible through the channels provided by P2P technology.

The Freakyflicks collection is limited to those films that have played an exceptional role in the history of cinema and its progression in becoming a great art. Films that are usually described as classic, cult, arthouse and avant-garde.

If you have films that fit this description feel free to share them and participate in our community. All you need do is include this tag in your upload and join us at the forum to announce your release.


'If we all seed just 1:1, give at least what we take, this torrent will NEVER DIE'

related torrents

Torrent name

health leech seeds Size
 


comments (0)

Main Menu