Drama

I Do I Did 2009 DVDRip XviD DOMiNO

  • Download 5x Faster
  • Download torrent
  • Direct Download
  • Rate this torrent +  |  -
I Do I Did 2009 DVDRip XviD DOMiNO

Anonymous and Free Direct Download 300GB+


Torrent info

Name:I Do I Did 2009 DVDRip XviD DOMiNO

Total Size: 707.48 MB

Magnet: Magnet Link

Seeds: 3

Leechers: 1

Stream: Watch Online @ Movie4u

Last Updated: 2010-12-30 13:41:12 (Update Now)

Torrent added: 2009-09-02 01:34:42



VPN For Torrents

Torrent Files List


domino-idoidid-sample.avi (Size: 707.48 MB) (Files: 4)

 domino-idoidid-sample.avi

7.33 MB

 domino-idoidid.avi

700.14 MB

 INVITATION!!!.txt

8.67 KB

 MediaInfo.nfo

2.16 KB
 

Announce URL: http://tracker.publicbt.com/announce

Torrent description

I.Do.I.Did.2009.DVDRip.XviD-DOMiNO


General
Complete name : domino-idoidid.avi
Format : AVI
Format/Info : Audio Video Interleave
File size : 700 MiB
Duration : 1h 31mn
Overall bit rate : 1 068 Kbps
Writing application : VirtualDubMod 1.5.10.2 (build 2540/release)
Writing library : VirtualDubMod build 2540/release

Video
Format : MPEG-4 Visual
Format profile : Streaming [email protected]
Format settings, BVOP : Yes
Format settings, QPel : No
Format settings, GMC : No warppoints
Format settings, Matrix : Default
Codec ID : XVID
Codec ID/Hint : XviD
Duration : 1h 31mn
Bit rate : 924 Kbps
Width : 608 pixels
Height : 336 pixels
Display aspect ratio : 16/9
Frame rate : 23.976 fps
Resolution : 24 bits
Colorimetry : 4:2:0
Scan type : Progressive
Bits/(Pixel*Frame) : 0.189
Stream size : 606 MiB (86%)
Writing library : XviD 1.1.2 (UTC 2006-11-01)

Audio
Format : MPEG Audio
Format version : Version 1
Format profile : Layer 3
Codec ID : 55
Codec ID/Hint : MP3
Duration : 1h 31mn
Bit rate mode : Variable
Bit rate : 132 Kbps
Nominal bit rate : 128 Kbps
Channel(s) : 2 channels
Sampling rate : 48.0 KHz
Resolution : 16 bits
Stream size : 86.2 MiB (12%)
Alignment : Aligned on interleaves
Interleave, duration : 24 ms (0.58 video frame)
Interleave, preload duration : 140 ms
Writing library : LAME3.90.
Encoding settings : ABR

related torrents

Torrent name

health leech seeds Size
 


comments (0)

Main Menu