Drama

A Simple Promise 2008 DVDRip XviD MP3

  • Download 5x Faster
  • Download torrent
  • Direct Download
  • Rate this torrent +  |  -
A Simple Promise 2008 DVDRip XviD MP3

Anonymous and Free Direct Download 300GB+


Torrent info

Name:A Simple Promise 2008 DVDRip XviD MP3

Total Size: 700.16 MB

Magnet: Magnet Link

Seeds: 0

Leechers: 0

Stream: Watch Online @ Movie4u

Last Updated: 2012-04-23 06:56:55 (Update Now)

Torrent added: 2009-09-02 01:25:28



VPN For Torrents

Torrent Files List


a simple promise.jpg (Size: 700.16 MB) (Files: 4)

 a simple promise.jpg

32.49 KB

 A.Simple.Promise.2008.DVDRip.XviD.MP3.avi

700.13 MB

 NFO.txt

2.15 KB

 tracked_by_h33t_com.txt

0.02 KB
 

Announce URL: http://www.h33t.com:3310/announce

Torrent description

General
Complete name : A.Simple.Promise.2008.DVDRip.XviD.MP3.avi
Format : AVI
Format/Info : Audio Video Interleave
File size : 700 MiB
Duration : 1h 32mn
Overal bit rate : 1053 Kbps
Writing application : VirtualDubMod 1.5.10.2 (build 2540/release)
Writing library : VirtualDubMod build 2540/release

Video
Format : MPEG-4 Visual
Format profile : Streaming [email protected]
Format settings, BVOP : Yes
Format settings, QPel : No
Format settings, GMC : No warppoints
Format settings, Matrix : Default
Muxing mode : Packet Bitstream
Codec ID : XVID
Codec ID/Hint : XviD
Duration : 1h 32mn
Bit rate : 910 Kbps
Width : 592 pixels
Height : 352 pixels
Display aspect ratio : 1.682
Frame rate : 23.976 fps
Resolution : 8 bits
Colorimetry : 4:2:0
Scan type : Progressive
Bits/(Pixel*Frame) : 0.182
Stream size : 605 MiB
Writing library : XviD 1.1.2 (UTC 2006-11-01)

Audio
Format : MPEG Audio
Format version : Version 1
Format profile : Layer 3
Codec ID : 55
Codec ID/Hint : MP3
Duration : 1h 32mn
Bit rate mode : Variable
Bit rate : 131 Kbps
Minimum bit rate : 128 Kbps
Channel(s) : 2 channels
Sampling rate : 48.0 KHz
Resolution : 16 bits
Stream size : 86.8 MiB
Writing library : LAME3.97
Encoding settings : VBR (mtrh)

IMDB : http://www.imdb.com/title/tt0800203/

related torrents

Torrent name

health leech seeds Size
 


comments (0)

Main Menu