Other

Hits Of 2009 VOL1 1CD Music Videos DVDRip XviD AC 3 M2TV sayans007

  • Download 5x Faster
  • Download torrent
  • Direct Download
  • Rate this torrent +  |  -
Hits Of 2009 VOL1 1CD Music Videos DVDRip XviD AC 3 M2TV sayans007

Free and Direct Download with Usenet.nl 300GB+ free


Torrent info

Name:Hits Of 2009 VOL1 1CD Music Videos DVDRip XviD AC 3 M2TV sayans007

Total Size: 695.84 MB

Magnet: Magnet Link

Seeds: 1

Leechers: 0

Stream: Watch Online @ Movie4u

Last Updated: 2011-03-20 17:24:06 (Update Now)

Torrent added: 2009-09-02 00:59:10





Torrent Files List


Hits.Of.2009.VOL1.1CD.Music.Videos.DVDRip.XviD.AC-3.M2TV.avi (Size: 695.84 MB) (Files: 1)

 Hits.Of.2009.VOL1.1CD.Music.Videos.DVDRip.XviD.AC-3.M2TV.avi

695.84 MB
 

Announce URL: http://dctorrent.com:2710/00012dfb7e0c7e0f7c74733712007c9e/announce

Torrent description

Video
Format : MPEG-4 Visual
Format profile : Streaming [email protected]
Format settings, BVOP : Yes
Format settings, QPel : No
Format settings, GMC : No warppoints
Format settings, Matrix : Default
Codec ID : XVID
Codec ID/Hint : XviD
Duration : 1h 44mn
Bit rate : 795 Kbps
Width : 640 pixels
Height : 272 pixels
Display aspect ratio : 2.35
Frame rate : 29.970 fps
Resolution : 24 bits
Colorimetry : 4:2:0
Scan type : Progressive
Bits/(Pixel*Frame) : 0.152
Stream size : 595 MiB (86%)
Writing library : XviD 50

Audio
Format : AC-3
Format/Info : Audio Coding 3
Codec ID : 2000
Bit rate mode : Constant
Bit rate : 128 Kbps
Channel(s) : 6 channels
Channel positions : Front: L C R, Rear: L R, LFE
Sampling rate : 48.0 KHz
Stream size : 95.9 MiB (14%)
Alignment : Aligned on interleaves
Interleave, duration : 64 ms (1.92 video frames)
Interleave, preload duration : 192 ms
Title : VTS_01_1-audio

related torrents

Torrent name

health leech seeds Size
 

comments (0)

Main Menu