Drama

21 2008 DVDrip oddball ENG

  • Download 5x Faster
  • Download torrent
  • Direct Download
  • Rate this torrent +  |  -
21 2008 DVDrip oddball ENG

Anonymous and Free Direct Download 300GB+


Torrent info

Name:21 2008 DVDrip oddball ENG

Total Size: 973.10 MB

Magnet: Magnet Link

Seeds: 8

Leechers: 2

Stream: Watch Online @ Movie4u

Last Updated: 2010-09-22 08:03:19 (Update Now)

Torrent added: 2009-09-02 00:48:46



VPN For Torrents

Torrent Files List


21 - 2008 DVDrip oddball-ENG.avi (Size: 973.10 MB) (Files: 3)

 21 - 2008 DVDrip oddball-ENG.avi

973.09 MB

 Reed Me .txt

5.86 KB

 21 DVD Cover.jpg

4.77 KB
 

Announce URL: http://tracker.thepiratebay.org/announce

Torrent description

21 is a 2008 drama film from Columbia Pictures. It is directed by Australian
director Robert Luketic and stars Jim Sturgess, Kevin Spacey, Jacob Pitts,
Kate Bosworth, Laurence Fishburne, Aaron Yoo and Liza Lapira. The film is
inspired by the true story of the MIT Blackjack Team as told in Bringing Down
the House, the best-selling book by Ben Mezrich.
`
Screen Shots [/nfo]
21   2008 DVDrip oddball ENG preview 0

21   2008 DVDrip oddball ENG preview 1

21   2008 DVDrip oddball ENG preview 2

21   2008 DVDrip oddball ENG preview 3

21   2008 DVDrip oddball ENG preview 4

Cast `
Actor Role ` `
Jim Sturgess .................... Ben Campbell

Kevin Spacey .................... Prof. Micky Rosa

Kate Bosworth ................... Jill Taylor

Aaron Yoo ....................... Choi

Liza Lapira ..................... Kianna

Jacob Pitts ..................... Jimmy Fisher

Laurence Fishburne .............. Cole Williams

Jack McGee ...................... Terry

Josh Gad ........................ Miles Connoly

Sam Golzari ..................... Cam

Helen Carey ..................... Ellen Campbell

Jack Gilpin ..................... Bob Phillips

This is the third film in which Spacey and Bosworth have starred together.
The first was Beyond the Sea, which Spacey directed, and the second was
Superman Returns. This is also the second film that Bosworth and director
Luketic have made together, the first being Win a Date with Tad Hamilton!
`.
General
Complete name : 21 - 2008
Format : AVI
Format/Info : Audio Video Interleave
File size : 973 MiB
Duration : 1h 57mn
Overall bit rate : 1 156 Kbps

Video
Format : MPEG-4 Visual
Format profile : Streaming Video@L1
Format settings, BVOP : Yes
Format settings, QPel : No
Format settings, GMC : No warppoints
Format settings, Matrix : Default
Muxing mode : Packed bitstream
Codec ID : XVID
Codec ID/Hint : XviD
Duration : 1h 57mn
Bit rate : 952 Kbps
Width : 1 024 pixels
Height : 582 pixels
Display aspect ratio : 16/9
Frame rate : 29.970 fps
Resolution : 24 bits
Colorimetry : 4:2:0
Scan type : Progressive
Bits/(Pixel*Frame) : 0.053
Stream size : 802 MiB (82%)
Writing library : XviD 1.1.0 (UTC 2005-11-22)

Audio
Format : MPEG Audio
Format version : Version 1
Format profile : Layer 3
Codec ID : 55
Codec ID/Hint : MP3
Duration : 1h 57mn
Bit rate mode : Constant
Bit rate : 192 Kbps
Channel(s) : 2 channels
Sampling rate : 44.1 KHz
Resolution : 16 bits
Video delay : 26ms
Stream size : 162 MiB (17%)
Alignment : Split accross interleaves
Interleave, duration : 33 ms (1.00 video frame)
Title : Audio Stream
Writing library : LAME3.92

related torrents

Torrent name

health leech seeds Size
 


comments (0)

Main Menu