Other

Herman Finkers Geen spatader veranderd DivX fkkr

  • Download 5x Faster
  • Download torrent
  • Direct Download
  • Rate this torrent +  |  -
Herman Finkers Geen spatader veranderd DivX fkkr

Free and Direct Download with Usenet 300GB+ free


Torrent info

Name:Herman Finkers Geen spatader veranderd DivX fkkr

Total Size: 702.06 MB

Magnet: Magnet Link

Seeds: 0

Leechers: 0

Stream: Watch Online @ Movie4u

Last Updated: 2010-08-10 05:59:36 (Update Now)

Torrent added: 2009-09-02 00:47:08




Torrent Files List


Front.jpg (Size: 702.06 MB) (Files: 3)

 Front.jpg

690.78 KB

 Herman Finkers - Geen spatader veranderd - DivX -fkkr-.avi

701.39 MB

 inhoud Herman Finkers - Geen spatader veranderd.txt

0.85 KB
 

Announce URL: http://open.tracker.thepiratebay.org/announce

Torrent description

Formaat : AVI
Formaat/Info : Audio Video Interleave
Bestandsgrootte : 701 MiB
Duration : 1h 52mn
Totale bitrate : 871 Kbps
Gebruikt programma : FairUse Wizard - http://fairusewizard.com
Gebruikte encoder-bibliotheek : The best and REALLY easy backup tool

Video
Formaat : MPEG-4 Visual
Format settings, BVOP : Nee
Format settings, QPel : Nee
Format settings, GMC : No warppoints
Format settings, Matrix : Default
Codec ID : DX50
Codec ID/Hint : DivX 5
Duration : 1h 52mn
Bitrate : 733 Kbps
Breedte : 480 pixels
Hoogte : 336 pixels
Beeldverhouding : 1.429
Framerate : 25,000 fps
Resolutie : 24 bits
Colorimetry : 4:2:0
Scan type : Progressive
Bits/(Pixel*Frame) : 0.182
Stream size : 590 MiB (84%)
Gebruikte encoder-bibliotheek : DivX 5.2.1 (DrDivX 106) (UTC 2004-09-08 )

Audio
Formaat : MPEG Audio
Format version : Version 1
Format profile : Layer 3
Codec ID : 55
Codec ID/Hint : MP3
Duration : 1h 52mn
Bitrate-modus : Constant
Bitrate : 128 Kbps
Minimum bit rate : 128 Kbps
Kanaal(en) : 2 kanalen
Samplerate : 48,0 KHz
Resolutie : 16 bits
Stream size : 103 MiB (15%)
Alignment : Aligned on interleaves
Interleave, duration : 40 ms (1,00 video frame)
Interleave, preload duration : 504 ms
Gebruikte encoder-bibliotheek : LAME3.97b
Instellingen codering : CBR

related torrents

Torrent name

health leech seeds Size
 

comments (0)

Main Menu