Other

feed the addiction harry989

  • Download 5x Faster
  • Download torrent
  • Direct Download
  • Rate this torrent +  |  -
feed the addiction harry989

Free and Direct Download with Usenet 300GB+ free


Torrent info

Name:feed the addiction harry989

Total Size: 683.58 MB

Magnet: Magnet Link

Seeds: 1

Leechers: 0

Stream: Watch Online @ Movie4u

Last Updated: 2010-03-04 15:01:54 (Update Now)

Torrent added: 2009-09-01 22:40:27




Torrent Files List


Alaskan halibut.avi (Size: 683.58 MB) (Files: 4)

 Alaskan halibut.avi

55.45 MB

 nfo.txt

2.43 KB

 north american hot spots.avi

628.14 MB

 tracked_by_h33t_com.txt

0.02 KB
 

Announce URL: http://www.h33t.com:3310/announce

Torrent description


Join the Gammy Creek Productions crew as they travel throughout North America in search of
the best fishing destinations this continent has to offer. From the Steelhead of Idaho's
renound Snake River and massive Halibut from Kodiak Island to huge Pike from the world famous
Reindeer Lake in Northern Saskatchewan. If you like to see giant fish being caught in some of
the most exciting locations imaginable then this is for you.



General
Gammy Creek productions

Complete name : feed the addiction\North American hot Spots\Halibut
Format : AVI
Format/Info : Audio Video Interleave
File size : 683 MiB
Duration : 1h 11mn
Overall bit rate : 1 339 Kbps
Writing application : Lavf51.12.1

Video
ID : 0
Format : MPEG-4 Visual
Format profile : [email protected]
Format settings, BVOP : No
Format settings, QPel : No
Format settings, GMC : No warppoints
Format settings, Matrix : Default (H.263)
Codec ID : DX50
Codec ID/Hint : DivX 5
Duration : 1h 11mn
Bit rate : 1 198 Kbps
Width : 720 pixels
Height : 480 pixels
Display aspect ratio : 1.500
Frame rate : 29.970 fps
Standard : NTSC
Resolution : 24 bits
Colorimetry : 4:2:0
Scan type : Progressive
Bits/(Pixel*Frame) : 0.116
Stream size : 562 MiB (89%)
Writing library : Lavc51.40.4

Audio
ID : 1
Format : MPEG Audio
Format version : Version 1
Format profile : Layer 3
Codec ID : 55
Codec ID/Hint : MP3
Duration : 1h 11mn
Bit rate mode : Constant
Bit rate : 128 Kbps
Channel(s) : 2 channels
Sampling rate : 48.0 KHz
Resolution : 16 bits
Stream size : 60.0 MiB (10%)
Alignment : Aligned on interleaves
Interleave, duration : 24 ms (0.72 video frame)
Interleave, preload duration : 24 ms
Writing library : LAME3.9

Scanned with avast home

hash..: 39277713ACA6AB79A1E59C53B89555705BD8D9DA



trackers............: http//h33t.com:3310/announce

.............: http://tracker.openbittorrent.com:80/announce

.............: http://tracker.publicbt.com:80/announce



===========tornster.com============

==========darksiderg.com===========

related torrents

Torrent name

health leech seeds Size
 

comments (0)

Main Menu