Documentary

Titanic's Final Moments: Missing Pieces (2006) [snach] [h33t]

  • Download 5x Faster
  • Download torrent
  • Direct Download
  • Rate this torrent +  |  -
Titanic's Final Moments: Missing Pieces (2006) [snach] [h33t]

Anonymous and Free Direct Download 300GB+


Torrent info

Name:Titanic's Final Moments: Missing Pieces (2006) [snach] [h33t]

Total Size: 700.14 MB

Magnet: Magnet Link

Seeds: 0

Leechers: 0

Stream: Watch Online @ Movie4u

Last Updated: 2013-02-23 16:45:37 (Update Now)

Torrent added: 2009-09-01 22:26:20



VPN For Torrents

Torrent Files List


00069486-434889_275.jpg (Size: 700.14 MB) (Files: 5)

 00069486-434889_275.jpg

15.02 KB

 Hist.Ch.Titanic's.Final.Moments.2006.xvid.mp3-snach.avi

700.12 MB

 INFO.txt

3.58 KB

 Torrent downloaded from Demonoid.com.txt

0.05 KB

 tracked_by_h33t_com.txt

0.02 KB
 

Announce URL:

Torrent description

--This is my own TV capture of this doc--

History Channel - Titanic's Final Moments: Missing Pieces (2006)


Program Info
The hosts of Deep Sea Detectives discover new evidence about the fate of the fabled liner.

•An important new investigation of the Titanic's loss.
•Hosted by John Chatterton and Richie Kohler of Deep Sea Detectives.
•Diving outside the wreck zone, John and Richie discover important new pieces of evidence.

In August 2005, John Chatterton and Richie Kohler, hosts of DEEP SEA DETECTIVES, led an expedition to the wreck of RMS Titanic. Diving 2 miles down in Russian submersibles, they searched outside the known debris field for new evidence.

On their final dive they made an extraordinary find: two large, intact sections of the Titanic's bottom hull in pristine condition with the red bottom paint still on them. For four months, a team of historians, marine architects, and engineers has been conducting a forensic analysis of this find. All agree that it's the most significant new discovery since the wreck was located in 1985. Analysis is ongoing, but preliminary indications are that these bottom sections will change our understanding of how the ship broke apart, and rewrite the story of the Titanic's final moments.


Video Info
Hist.Ch.Titanic's.Final.Moments.2006.xvid.mp3-snach.avi

Format : AVI
Format/Info : Audio Video Interleave
File size : 700 MiB
Duration : 1h 30mn
Overall bit rate : 1 086 Kbps
Writing application : MediaCoder 0.6

Video
Format : MPEG-4 Visual
Format profile : Streaming [email protected]
Format settings, BVOP : No
Format settings, QPel : No
Format settings, GMC : 3 warppoints
Format settings, Matrix : Default
Codec ID : XVID
Codec ID/Hint : XviD
Duration : 1h 30mn
Bit rate : 944 Kbps
Width : 696 pixels
Height : 360 pixels
Display aspect ratio : 1.933
Frame rate : 29.970 fps
Resolution : 24 bits
Colorimetry : 4:2:0
Scan type : Progressive
Bits/(Pixel*Frame) : 0.126
Stream size : 609 MiB (87%)
Writing library : XviD 1.2.0.dev47 (UTC 2006-11-01)

Audio
Format : MPEG Audio
Format version : Version 1
Format profile : Layer 3
Codec ID : 55
Codec ID/Hint : MP3
Duration : 1h 30mn
Bit rate mode : Constant
Bit rate : 128 Kbps
Channel(s) : 2 channels
Sampling rate : 48.0 KHz
Resolution : 16 bits
Stream size : 82.5 MiB (12%)
Alignment : Aligned on interleaves
Interleave, duration : 24 ms (0.72 video frame)
Interleave, preload duration : 504 ms


Trackers
http://tracker.conspiracycentral.net/announce
http://tracker.thepiratebay.org:80/announce
http://denis.stalker.h3q.com:6969/announce
http://open.tracker.thepiratebay.org/announce
http://torrent-downloads.to:5869/announce
http://www.h33t.com:3310/announce
http://inferno.demonoid.com:3404/announce

Visit & Join us at:
http://tracker.ConspiracyCentral.net

Enjoy & Seed!

related torrents

Torrent name

health leech seeds Size
 


comments (0)

Main Menu