Documentary

The NAZIS ep 1 of 6 (BBC 3xDVD) Subs FIN SWE DK NO

  • Download 5x Faster
  • Download torrent
  • Direct Download
  • Rate this torrent +  |  -
The NAZIS ep 1 of 6 (BBC 3xDVD) Subs FIN SWE DK NO

Free and Direct Download with Usenet.nl 300GB+ free


Torrent info

Name:The NAZIS ep 1 of 6 (BBC 3xDVD) Subs FIN SWE DK NO

Total Size: 424.34 MB

Magnet: Magnet Link

Seeds: 0

Leechers: 0

Stream: Watch Online @ Movie4u

Last Updated: 2010-08-05 00:29:48 (Update Now)

Torrent added: 2009-09-01 21:37:08





Torrent Files List


The Nazis BBC Box Set 3-DVDs.jpg (Size: 424.34 MB) (Files: 4)

 The Nazis BBC Box Set 3-DVDs.jpg

74.81 KB

 The NAZIS ep. 1 of 6 (BBC).avi

421.73 MB

 The NAZIS ep. 1 of 6 (BBC).idx

82.24 KB

 The NAZIS ep. 1 of 6 (BBC).rar

2.45 MB
 

Announce URL: http://tracker.thepiratebay.org/announce

Torrent description

Xvid conversion with AutoGk sharp-matrix Good Quality
----------------------------------------------------------------------------------

THE NAZIS - A Warning From History BBC 3-DVD Box Set

Episode 1 of 6 : Helped Into Power

(Parts 2-6 coming here soon) !!!

http://www.imdb.com/title/tt0207907

"Probably the Best Ever Documentary series about The Third Reich".

Awards: 4 wins and 1 nommination

User Rating: 8.7/10 5,242 votes
Genre: Biography | Drama | History
Video Part1: XviD 1097 KB/s 560 x 416 @25fps 4:3
Audio: English MPEG-1 Layer 3 (MP3) 128 KB/s (VBR)
Source: DVD PAL
Episode 1 Duration: 48 minutes
Language: English
Subtitles: Finnish, Swedish, Danish, Norwegian

-----------------------------------------------------------------------------------

Subtitles best watched with this superb freeware player:
http://www.mpcstar.com/

Subtitles: YES in 4 LANGUAGES !!! - Read Below:

------------------------------------------------------------------------------------
With MPC Star-player you don't have to do any preparations - just start this movie

and right-click on the picture and you will see Choose File Subtitle - there you

can choose from any of the 4 Languages !!
------------------------------------------------------------------------------------

With VLC-player you must first extract the rar-archive and only then you will have

all the subs to choose from.
-------------------------------------------------------------------------------------

SUOMEKSI: Uskomattoman hyvä ja perusteellinen dokumentti-sarja Natseista.

6 jaksoa yhteensä 5 tuntia. PAKKO NÄHDÄ. Loistavinta BBC-laatua.

Tässä OSA 1 (yhteensä 6 osaa) LOPUT ON TULOSSA TÄÄLLÄ PIAKKOIN !!

-----------------------------------------------------------------------------------

Tekstit suomeksi - toimii PC ei TV (elokuva näkyy telkassa mutta ei tekstit).

Tekstit näkyy siis heti MPC Star-playerillä, mutta VLC-playerillä on pakko

ensin avata tuo .rar tiedosto - sitten näkyy siinäkin !!

-----------------------------------------------------------------------------------

Format : AVI
Format/Info : Audio Video Interleave
File size : 422 MiB
Duration : 48mn 17s
Overall bit rate : 1 221 Kbps
Writing application : VirtualDubMod 1.5.4.1 (build 2178/release)
Writing library : VirtualDubMod build 2178/release

Video
Format : MPEG-4 Visual
Format profile : Streaming [email protected]
Format settings, BVOP : Yes
Format settings, QPel : No
Format settings, GMC : No warppoints
Format settings, Matrix : Default
Muxing mode : Packed bitstream
Codec ID : XVID
Codec ID/Hint : XviD
Duration : 48mn 17s
Bit rate : 1 097 Kbps
Width : 560 pixels
Height : 416 pixels
Display aspect ratio : 4/3
Frame rate : 25.000 fps
Resolution : 24 bits
Colorimetry : 4:2:0
Scan type : Progressive
Bits/(Pixel*Frame) : 0.188
Stream size : 379 MiB (90%)
Writing library : XviD 1.2.1 (UTC 2008-12-04)

Audio
Format : MPEG Audio
Format version : Version 1
Format profile : Layer 3
Codec ID : 55
Codec ID/Hint : MP3
Duration : 48mn 17s
Bit rate mode : Variable
Bit rate : 111 Kbps
Minimum bit rate : 128 Kbps
Channel(s) : 2 channels
Sampling rate : 48.0 KHz
Resolution : 16 bits
Stream size : 38.5 MiB (9%)
Alignment : Aligned on interleaves
Interleave, duration : 24 ms (0.60 video frame)
Interleave, preload duration : 561 ms
Writing library : LAME3.98r
Encoding settings : ABR

related torrents

Torrent name

health leech seeds Size
 

comments (0)

Main Menu