Documentary

The Mike Tyson Story DVDRip XviD (AC 3 Audio)

  • Download 5x Faster
  • Download torrent
  • Direct Download
  • Rate this torrent +  |  -
The Mike Tyson Story DVDRip XviD (AC 3 Audio)

Free and Direct Download with Usenet 300GB+ free


Torrent info

Name:The Mike Tyson Story DVDRip XviD (AC 3 Audio)

Total Size: 699.97 MB

Magnet: Magnet Link

Seeds: 1

Leechers: 0

Stream: Watch Online @ Movie4u

Last Updated: 2015-09-09 13:03:57 (Update Now)

Torrent added: 2009-09-01 21:33:11




Torrent Files List


Tyson [2008].avi (Size: 699.97 MB) (Files: 1)

 Tyson [2008].avi

699.97 MB
 

tracker

leech seeds
 

Torrent description

A mixture of original interviews and archival footage and photographs sheds light on the life experiences of Mike Tyson.




General
Complete name : Tyson [2008].avi
Format : AVI
Format/Info : Audio Video Interleave
File size : 700 MiB
Duration : 52mn 1s
Overall bit rate : 1 881 Kbps
Writing application : VirtualDubMod 1.5.10.1 (build 2366/release)
Writing library : VirtualDubMod build 2366/release

Video
Format : MPEG-4 Visual
Format profile : Streaming [email protected]
Format settings, BVOP : Yes
Format settings, QPel : Yes
Format settings, GMC : No warppoints
Format settings, Matrix : Default
Muxing mode : Packed bitstream
Codec ID : XVID
Codec ID/Hint : XviD
Duration : 52mn 1s
Bit rate : 1 648 Kbps
Width : 608 pixels
Height : 464 pixels
Display aspect ratio : 4/3
Frame rate : 25.000 fps
Resolution : 24 bits
Colorimetry : 4:2:0
Scan type : Progressive
Bits/(Pixel*Frame) : 0.234
Stream size : 613 MiB (88%)
Writing library : XviD 1.0.0 RC4 (Hola) (UTC 2004-04-05)

Audio
Format : AC-3
Format/Info : Audio Coding 3
Codec ID : 2000
Duration : 52mn 1s
Bit rate mode : Constant
Bit rate : 224 Kbps
Channel(s) : 2 channels
Channel positions : L R
Sampling rate : 48.0 KHz
Video delay : 16ms
Stream size : 83.3 MiB (12%)
Alignment : Split accross interleaves
Interleave, duration : 40 ms (1.00 video frame)
Interleave, preload duration : 500 ms


Please help your fellow pirates by seeding after download!

related torrents

Torrent name

health leech seeds Size
 

comments (0)

Main Menu