Documentary

The Last Trapper AC3 5,1 DVDRip[Eng]2004

  • Download 5x Faster
  • Download torrent
  • Direct Download
  • Rate this torrent +  |  -
The Last Trapper AC3 5,1 DVDRip[Eng]2004

Free and Direct Download with Usenet 300GB+ free


Torrent info

Name:The Last Trapper AC3 5,1 DVDRip[Eng]2004

Total Size: 1.39 GB

Magnet: Magnet Link

Seeds: 12

Leechers: 4

Stream: Watch Online @ Movie4u

Last Updated: 2011-01-24 19:56:17 (Update Now)

Torrent added: 2009-09-01 21:27:53




Torrent Files List


The Last Trapper-AC3-5,1-DVDRip[Eng]2004-CD1.jpg (Size: 1.39 GB) (Files: 5)

 The Last Trapper-AC3-5,1-DVDRip[Eng]2004-CD1.jpg

328.91 KB

 The Last Trapper-AC3-5,1-DVDRip[Eng]2004-Cover.jpg

388.32 KB

 The Last Trapper-AC3-5,1-DVDRip[Eng]2004.avi

1.39 GB

 The Last Trapper-AC3-5,1-DVDRip[Eng]2004.txt

3.19 KB

 Torrent downloaded from Demonoid.com.txt

0.05 KB
 

Announce URL: http://inferno.demonoid.com:3414/announce

Torrent description

http://www.imdb.com/title/tt0395514/

http://www.lederniertrappeur.com/

User Rating:6.6/10 - 453 votes

Documentary/Adventure

Director:Nicolas Vanier

Cast:
Norman Winther ... Himself
May Loo ... Herself
Alex Van Bibber ... Himself
Ken Bolton ... Himself

Plot:
Norman Winther (playing himself) lives in a log cabin with his partner Nebraska (May Loo) deep in the Yukon bush. They subsist
by trapping: they eat the meat from the caribou, beaver and moose and then sell the pelts in the nearest town. Norm sets snares
for the smaller animals and hunts moose with a rifle. In the winter, he ice fishes. His preferred mode of transport is the
dogsled, pulled by his pack of huskies, led by Nanook.Norman is clearly an advocate of living in harmony with nature, something
he achieves in truly admirable fashion. The sequence where he and Nebraska build their own log cabin, using only hand tools, is
as impressive as any episode of Grand Designs. However, life is not all idyllic, a fact brought home by Norman's numerous run-ins
with the perils of living so close to nature: bears, thin ice, the total lack of roads and clear-cutting...

Info:

Covers included.

General
Format : AVI
Format/Info : Audio Video Interleave
File size : 1.39 GiB
Duration : 1h 37mn
Overall bit rate : 2 044 Kbps
Writing application : VirtualDubMod 1.5.4.1 (build 2178/release)
Writing library : VirtualDubMod build 2178/release

Video
Format : MPEG-4 Visual
Format profile : Streaming [email protected]
Format settings, BVOP : Yes
Format settings, QPel : No
Format settings, GMC : No warppoints
Format settings, Matrix : Default
Muxing mode : Packed bitstream
Codec ID : XVID
Codec ID/Hint : XviD
Duration : 1h 37mn
Bit rate : 1 589 Kbps
Width : 720 pixels
Height : 416 pixels
Display aspect ratio : 16/9
Frame rate : 25.000 fps
Resolution : 24 bits
Colorimetry : 4:2:0
Scan type : Progressive
Bits/(Pixel*Frame) : 0.212
Stream size : 1.08 GiB (78%)
Writing library : XviD 50

Audio
Format : AC-3
Format/Info : Audio Coding 3
Codec ID : 2000
Duration : 1h 37mn
Bit rate mode : Constant
Bit rate : 448 Kbps
Channel(s) : 6 channels
Channel positions : Front: L C R, Surround: L R, LFE
Sampling rate : 48.0 KHz
Stream size : 311 MiB (22%)
Alignment : Split accross interleaves
Interleave, duration : 80 ms (2.00 video frames)
Interleave, preload duration : 500 ms
Language : English

Enjoy...

related torrents

Torrent name

health leech seeds Size
 

comments (0)

Main Menu