Documentary

TERRORISM Made In USA 2007 DVDrip 720x480 xvid mp3 snach avi

  • Download 5x Faster
  • Download torrent
  • Direct Download
  • Rate this torrent +  |  -

Torrent info

Name:TERRORISM Made In USA 2007 DVDrip 720x480 xvid mp3 snach avi

Total Size: 708.47 MB

Magnet: Magnet Link

Seeds: 0

Leechers: 0

Stream: Watch Online @ Movie4u

Last Updated: 2010-10-06 05:09:09 (Update Now)

Torrent added: 2009-09-01 20:44:09



VPN For Torrents

Torrent Files List


TERRORISM.Made.In.USA.2007.DVDrip.720x480.xvid.mp3-snach.avi (Size: 708.47 MB) (Files: 1)

 TERRORISM.Made.In.USA.2007.DVDrip.720x480.xvid.mp3-snach.avi

708.47 MB
 

Announce URL: http://tracker.thepiratebay.org/announce

Torrent description

Program Info
Documentary series injerenCIA The Silent Invasion

Posada Carriles - Terrorism: Made in USA

This Documentary Series reveals the \"other story\" of the relations of the US governments with Latin America. It is not the \"official\" Washington story, nor is it a \"convenient\" story for many governments of the hemisphere. It is the story that the Latin American peoples have been writing to this date, in their struggle for sovereignty. The Series is a tool for that struggle, and it is also a homage to those who have fallen.

A Cuban airliner with 73 passengers on board left Venezuela on October 6, 1976. Two explosions took it down over the ocean, near the Barbados coast. There were no survivors.

As a result of this attack, the existence of a terrorist network was exposed to the public opinion. A network that was financed and controlled by the CIA, and which had been operating clandestinely since the 1960s. It had an important center of operations in Venezuela, where Luis Posada Carriles was a key figure.

This documentary tells the story of terrorist Posada Carriles, since he started working for the CIA in the 1960s, until he was welcomed in Miami by the Bush Government in 2007. It reveals the tentacles of terrorism Made in the USA.
90 minutes

The Venezuelan documentary film \"Posada Carriles: Terrorism Made in Usa\", which is a part of TV series called InjerenCIA, showing a historical overview on terrorist Posada Carriles and his links with CIA, has been stopped by USA Security Services at Miami Airport. The film supported in DVD format was sent by means of a courier service from Caracas, destined to El Paso (Texas), to be received on Friday may 11 by an American Social Organization for exhibition purposes in that locality in connection with activities currently developed in several cities in USA to reject freedom granted to terrorist Posada Carriles.

The film is right now under custody of Bush Government. The report issued by the courier service states that the film stopped in transit is \'held by Government for inspection?\'. This happened yesterday Thursday at 1:30 pm and still remains so. Therefore the exhibition scheduled for today Friday in Texas must be suspended because documentary has not arrived in time. The sole information received from Miami Airport is that inspection \'could last 8 days or more\'.

As a matter of fact, today in El Paso (Texas), Bush Government censorship prevents American people to watch this documentary film about terrorist Posada Carriles.

There are hundreds of voices of torture victims and their relatives claiming for justice. There are thousands of unclassified documents providing proof of Posada Carriles attempts acting as a CIA agent, as well as many evidence of relationships between Bush family and Posada Carriles and other terrorists. Every day there are new voices joining this protest. It is not just an extradition claim from Venezuelan Government, but also a whole humanity which is sick ok abuse and crimes against human rights. All those voices, evidences and outcry for justice against terrorism shall not be silenced by Casablanca\'s censorship or maneuvers, because that\'s a worldwide outcry.


Let this torrent serve as a means to break through the US government censorship to its own people; afraid of letting them discover the truth...

[Updated]
The guy got off here in America. This article is the newest info surrounding him:
http://www.plenglish.com/article.asp?ID={E4FA2888-8DD6-41A8-9050-F26D219EC55B}&language=EN

This is my own dvdrip of the .iso found here:
http://tracker.conspiracycentral.net/torrents-details.php?id=484

Video Info
General
Posada.Carilles.TERRORISM.2007.DVDrip.720x480.xvid.mp3-snach.avi

Format : AVI
Format/Info : Audio Video Interleave
File size : 708 MiB
Duration : 1h 26mn
Overal bit rate : 1143 Kbps
Writing application : MediaCoder 0.6

Video
Format : MPEG-4 Visual
Format profile : [email protected]
Format settings, BVOP : No
Format settings, QPel : No
Format settings, GMC : No warpoints
Format settings, Matrix : Default
Codec ID : XVID
Codec ID/Hint : XviD
Duration : 1h 26mn
Bit rate : 970 Kbps
Width : 720 pixels
Height : 480 pixels
Display aspect ratio : 2.000
Frame rate : 25.000 fps
Standard : NTSC
Resolution : 8 bits
Colorimetry : 4:2:0
Scan type : Progressive
Bits/(Pixel*Frame) : 0.112
Stream size : 601 MiB
Writing library : XviD 1.2.0.dev47 (UTC 2006-11-01)

Audio
Format : MPEG Audio
Format version : Version 1
Format profile : Layer 3
Codec ID : 55
Codec ID/Hint : MP3
Duration : 1h 26mn
Bit rate mode : Constant
Bit rate : 160 Kbps
Channel(s) : 2 channels
Sampling rate : 48.0 KHz
Resolution : 16 bits
Stream size : 99.2 MiB
Writing library : LAME3.98

Visit us at:
http://tracker.conspiracycentral.net

Enjoy & Seed!

related torrents

Torrent name

health leech seeds Size
 


comments (0)

Main Menu