Documentary

Steal This Film I VOSTFR DVDRIP XVID FLF

  • Download 5x Faster
  • Download torrent
  • Direct Download
  • Rate this torrent +  |  -
Steal This Film I VOSTFR DVDRIP XVID FLF

Anonymous and Direct Download 300GB+ free


Torrent info

Name:Steal This Film I VOSTFR DVDRIP XVID FLF

Total Size: 701.58 MB

Magnet: Magnet Link

Seeds: 0

Leechers: 0

Stream: Watch Online @ Movie4u

Last Updated: 2010-07-27 12:56:27 (Update Now)

Torrent added: 2009-09-01 20:20:03




Torrent Files List


Steal.This.Film.I.VOSTFR.DVDRIP.XVID-FLF.avi (Size: 701.58 MB) (Files: 4)

 Steal.This.Film.I.VOSTFR.DVDRIP.XVID-FLF.avi

701.48 MB

 Steal.This.Film.I.VOSTFR.DVDRIP.XVID-FLF.ENG.sub

42.22 KB

 Steal.This.Film.I.VOSTFR.DVDRIP.XVID-FLF.FR.sub

46.78 KB

 Steal.This.Film.I.VOSTFR.DVDRIP.XVID-FLF.nfo

13.66 KB
 

Announce URL: http://tracker.thepiratebay.org:80/announce

Torrent description

Steal This Film I


Part ONE of Steal This Film [8] (sometimes subtitled 'The Dissolving Fortress') was produced during 2007. It premiered (in a preliminary version) at the "The Oil of the 21st Century - Perspectives on Intellectual Property" conference in Berlin, Germany, November 2007.[9]


SWEDEN

BY The League of Noble Peers

Documentary

32Min

2006

production : 2000

HISTORY OF BITTORRENT AND PIRATEBAY ENCODED IN AVI.

Distribued by : PIRATEBAY
********************************************************************************
Qualité : DVDRiP
Format : XviD
Langue : ENGLISH
Sous-titre : FRENCH . ENGLISH
Nombre de fichiers : 4 Fichiers

********************************************************************************
NOT ON IMDB

********************************************************************************
General
Complete name : Steal.This.Film.I.VOSTFR.DVDRIP.XVID-FLF
Format : AVI
Format/Info : Audio Video Interleave
File size : 701 MiB
Duration : 32mn 16s
Overall bit rate : 3 038 Kbps

Video
Format : MPEG-4 Visual
Format settings, BVOP : Yes
Format settings, QPel : No
Format settings, GMC : No warppoints
Format settings, Matrix : Default
Codec ID : DX50
Codec ID/Hint : DivX 5
Duration : 32mn 16s
Bit rate : 2 901 Kbps
Width : 688 pixels
Height : 384 pixels
Display aspect ratio : 16/9
Frame rate : 25.000 fps
Resolution : 24 bits
Colorimetry : 4:2:0
Scan type : Progressive
Bits/(Pixel*Frame) : 0.439
Stream size : 670 MiB (95%)
Writing library : DivX 6.8.3 (UTC 2008-06-07)

Audio
Format : MPEG Audio
Format version : Version 1
Format profile : Layer 3
Codec ID : 55
Codec ID/Hint : MP3
Duration : 32mn 16s
Bit rate mode : Constant
Bit rate : 128 Kbps
Minimum bit rate : 128 Kbps
Channel(s) : 2 channels
Sampling rate : 48.0 KHz
Resolution : 16 bits
Stream size : 29.6 MiB (4%)
Alignment : Aligned on interleaves
Interleave, duration : 40 ms (1.00 video frame)
Interleave, preload duration : 504 ms
Writing library : LAME3.97
Encoding settings : CBR



Language : ENG
Subtitles : FR/ENG

USE VLC HARDWARE FOR LOOKING THIS OPTION > PARAMETERS > SUBTITLES

related torrents

Torrent name

health leech seeds Size
 


comments (0)

Main Menu