Documentary

Sretno Dijete (2003)

  • Download 5x Faster
  • Download torrent
  • Direct Download
  • Rate this torrent +  |  -
Sretno Dijete (2003)

Anonymous and Free Direct Download 300GB+


Torrent info

Name:Sretno Dijete (2003)

Total Size: 698.54 MB

Magnet: Magnet Link

Seeds: 0

Leechers: 0

Stream: Watch Online @ Movie4u

Last Updated: 2010-03-07 18:19:55 (Update Now)

Torrent added: 2009-09-01 20:16:23



VPN For Torrents

Torrent Files List


www.yubraca.net (Size: 698.54 MB) (Files: 1)

 www.yubraca.net

  Sretno Dijete by www.yubraca.net.mp4

698.54 MB
 

Announce URL: http://open.tracker.thepiratebay.org/announce

Torrent description


Sretno Dijete (2003)

Flash back u 'zlatno doba' YU rocka poznatije pod imenom 'novi val' o?ima redatelja Igora Mirkovi?a, kako sam za sebe kaže, sretnog tinejdžera.
Sretno dijete

Mirkovi? se u filmu okre?e unatrag, u vrijeme kad je bio sretno dijete. Zapravo sretni tinejdžer. U doba njegove mladosti dogodio se novi val, zna?ajno razdoblje u glazbi koje mnogi smatraju najboljim u našoj povijesti. Tada odrasta zadnja generacija djece socijalizma koja se, pod utjecajem zapadnih glazbenih i socijalnih strujanja, po?inje komešati, aktivirati, formiraju se bendovi i nastoji se svim silama uskovitlati ustajali zrak nagrižen ekonomskom krizom.

U to su doba svoje karijere zapo?eli Azra, Haustor, Film, Patrola, Pankrti, Elektri?ni orgazam, Idoli, Prljavo kazalište i mnogi drugi. Kako je Mirkovi? odrastao uz takvu glazbu, bilo mu je nevjerojatno da se još nitko nije sjetio to prenijeti na filmsku vrpcu. Pa je odlu?io sam to u?initi. I dao si je truda. Kako su zvijezde iz tog doba razasute po cijelom svijetu, osim u Zagrebu, Ljubljani i Beogradu, film je snimao i u New Yorku, Parizu, Utrechtu i Be?u.

Film je pretpremijerno prikazan na prošlogodišnjem festivalu u Puli, izazvavši proturje?ne reakcije. Neki su htjeli vidjeti više glazbene arhive (a manje izjava ostarjelih zvijezda), dok je druge film taknuo u žicu.

Ima još - klik i klik!




Info

Originalni naslov:
Sretno dijete

Žanr:
dokumentarni

Uloge:
Igor Mirkovi?, Petar Lovšin, Denis Kuljiš, Sven Semen?i?, Jasenko Houra, Renato Metessi, Mišo Hrnjak, Boris Leiner, Sr?an Gojkovi? Gile, Vlada Divljan, Vlatko Fras, Mirko Ili?, Darko Rundek, Davorin Bogovi?, Haustor, Idoli, Film, Elektri?ni orgazam, Azra, Prljavo kazalište, Pankrti, Bijelo dugme

Režija:
Igor Mirkovi?

Producent/i:
Rajko Grli?¸, Gerila DV Film, Vizije SFT

Trajanje:
97'

Godina izdanja:
2003.

Izdava?/Distributer:
Gerila DV Film, Vizije SFT


Format : MPEG-4
Format profile : Base Media / Version 2
Codec ID : mp42
File size : 699 MiB
Duration : 1h 36mn
Overall bit rate : 1 010 Kbps
Encoded date : UTC 2009-05-26 00:01:00
Tagged date : UTC 2009-05-26 03:51:10

Video
ID : 1
Format : AVC
Format/Info : Advanced Video Codec
Format profile : [email protected]
Format settings, CABAC : Yes
Format settings, ReFrames : 2 frames
Codec ID : avc1
Codec ID/Info : Advanced Video Coding
Duration : 1h 36mn
Bit rate mode : Variable
Bit rate : 886 Kbps
Maximum bit rate : 4 223 Kbps
Width : 608 pixels
Height : 488 pixels
Display aspect ratio : 5/4
Original display aspect ratio : 16/9
Frame rate mode : Constant
Frame rate : 25.000 fps
Standard : PAL
Resolution : 24 bits
Colorimetry : 4:2:0
Scan type : Progressive
Bits/(Pixel*Frame) : 0.119
Stream size : 613 MiB (88%)
Encoded date : UTC 2009-05-26 00:01:01
Tagged date : UTC 2009-05-26 03:51:10

Audio
ID : 2
Format : AAC
Format/Info : Advanced Audio Codec
Format version : Version 4
Format profile : LC
Format settings, SBR : No
Codec ID : 40
Duration : 1h 36mn
Bit rate mode : Variable
Bit rate : 112 Kbps
Maximum bit rate : 123 Kbps
Channel(s) : 2 channels
Channel positions : L R
Sampling rate : 48.0 KHz
Resolution : 16 bits
Stream size : 77.4 MiB (11%)
Title : Croatian
Language : scr

related torrents

Torrent name

health leech seeds Size

1987 - Dijete Srece

0 0 36.84 MB 0
 


comments (0)

Main Menu