Documentary

Schlock! The Secret History of American Movies (2001)

  • Download 5x Faster
  • Download torrent
  • Direct Download
  • Rate this torrent +  |  -
Schlock! The Secret History of American Movies (2001)

Free and Direct Download with Usenet 300GB+ free


Torrent info

Name:Schlock! The Secret History of American Movies (2001)

Total Size: 698.73 MB

Magnet: Magnet Link

Seeds: 0

Leechers: 0

Stream: Watch Online @ Movie4u

Last Updated: 2017-01-12 01:51:23 (Update Now)

Torrent added: 2009-09-01 19:43:33




Torrent Files List


info.txt (Size: 698.73 MB) (Files: 2)

 info.txt

2.16 KB

 Schlock!-The Secret History Of American Movies (2001).avi

698.73 MB
 

tracker

leech seeds
 

Torrent description

Schlock! The Secret History of American Movies (2001)

http://www.imdb.com/title/tt0286944/

You've heard of Hollywood, a town of tinsel and glamour, the town of Paramount, Columbia and MGM. But there is another Hollywood, a place where maverick independent EXPLOITATION FILMMAKERS went toe to toe with the big guys and came out on top! "SCHLOCK! THE SECRET HISTORY OF AMERICAN MOVIES" takes you behind the scenes with the legendary EXPLOITATION and SEXPLOITATION filmmakers of those golden "DRIVE-IN" MOVIE days. It's sexy! It's strange! And every word is true!


General
Format : AVI
Format/Info : Audio Video Interleave
File size : 699 MiB
Duration : 1h 29mn
Overall bit rate : 1 089 Kbps
Writing application : VirtualDubMod 1.5.4.1 (build 2178/release)
Writing library : VirtualDubMod build 2178/release

Video
Format : MPEG-4 Visual
Format profile : Streaming [email protected]
Format settings, BVOP : Yes
Format settings, QPel : No
Format settings, GMC : No warppoints
Format settings, Matrix : Custom
Codec ID : XVID
Codec ID/Hint : XviD
Duration : 1h 29mn
Bit rate : 969 Kbps
Width : 624 pixels
Height : 464 pixels
Display aspect ratio : 4/3
Frame rate : 29.970 fps
Resolution : 24 bits
Colorimetry : 4:2:0
Scan type : Progressive
Bits/(Pixel*Frame) : 0.112
Stream size : 621 MiB (89%)
Writing library : XviD 1.2.0SMP (UTC 2006-01-08)

Audio
Format : MPEG Audio
Format version : Version 1
Format profile : Layer 3
Codec ID : 55
Codec ID/Hint : MP3
Duration : 1h 29mn
Bit rate mode : Variable
Bit rate : 107 Kbps
Minimum bit rate : 128 Kbps
Channel(s) : 2 channels
Sampling rate : 48.0 KHz
Resolution : 16 bits
Stream size : 68.4 MiB (10%)
Alignment : Aligned on interleaves
Interleave, duration : 24 ms (0.72 video frame)
Interleave, preload duration : 590 ms
Writing library : LAME3.97b
Encoding settings : ABR
Language : English

related torrents

Torrent name

health leech seeds Size
 

comments (0)

Main Menu