Horror

domino sauna

  • Download 5x Faster
  • Download torrent
  • Direct Download
  • Rate this torrent +  |  -
domino sauna

Anonymous and Free Direct Download 300GB+


Torrent info

Name:domino sauna

Total Size: 706.21 MB

Magnet: Magnet Link

Seeds: 1

Leechers: 1

Stream: Watch Online @ Movie4u

Last Updated: 2010-03-10 13:34:31 (Update Now)

Torrent added: 2009-09-01 19:34:27



VPN For Torrents

Torrent Files List


domino-saunas-sample.avi (Size: 706.21 MB) (Files: 4)

 domino-saunas-sample.avi

5.25 MB

 domino-saunas-subs.rar

813.11 KB

 domino-saunas.avi

700.17 MB

 domino-saunas.nfo

0.50 KB
 

Announce URL: http://genesis.1337x.org:1337/announce

Torrent description

Domino.Sauna.avi


General
Complete name : domino-saunas.avi
Format : AVI
Format/Info : Audio Video Interleave
File size : 700 MiB
Duration : 1h 23mn
Overall bit rate : 1 173 Kbps
Writing application : VirtualDubMod 1.5.10.2 (build 2540/release)
Writing library : VirtualDubMod build 2540/release

Video
Format : MPEG-4 Visual
Format profile : Streaming [email protected]
Format settings, BVOP : Yes
Format settings, QPel : No
Format settings, GMC : No warppoints
Format settings, Matrix : Default
Codec ID : XVID
Codec ID/Hint : XviD
Duration : 1h 23mn
Bit rate : 1 030 Kbps
Width : 640 pixels
Height : 272 pixels
Display aspect ratio : 2.35
Frame rate : 23.976 fps
Resolution : 24 bits
Colorimetry : 4:2:0
Scan type : Progressive
Bits/(Pixel*Frame) : 0.247
Stream size : 615 MiB (88%)
Writing library : XviD 1.1.2 (UTC 2006-11-01)

Audio
Format : MPEG Audio
Format version : Version 1
Format profile : Layer 3
Codec ID : 55
Codec ID/Hint : MP3
Duration : 1h 23mn
Bit rate mode : Variable
Bit rate : 130 Kbps
Nominal bit rate : 128 Kbps
Channel(s) : 2 channels
Sampling rate : 48.0 KHz
Resolution : 16 bits
Video delay : 888ms
Stream size : 77.4 MiB (11%)
Alignment : Aligned on interleaves
Interleave, duration : 24 ms (0.58 video frame)
Interleave, preload duration : 1493 ms
Writing library : LAME3.90.
Encoding settings : ABR

related torrents

Torrent name

health leech seeds Size

Sauna 2008 DVDRip XviD DOMiNO

21 23 705.58 MB 0
 


comments (0)

Main Menu