Documentary

Peter Jennings UFOs Seeing Is Believing 2005 714x352 xvid mp3 snach avi [h33t]

  • Download 5x Faster
  • Download torrent
  • Direct Download
  • Rate this torrent +  |  -
Peter Jennings UFOs Seeing Is Believing 2005 714x352 xvid mp3 snach avi [h33t]

Free and Direct Download with Usenet.nl 300GB+ free


Torrent info

Name:Peter Jennings UFOs Seeing Is Believing 2005 714x352 xvid mp3 snach avi [h33t]

Total Size: 920.23 MB

Magnet: Magnet Link

Seeds: 0

Leechers: 0

Stream: Watch Online @ Movie4u

Last Updated: 2010-08-19 02:38:01 (Update Now)

Torrent added: 2009-09-01 18:39:34





Torrent Files List


Peter.Jennings.UFOs.Seeing.Is.Believing.2005.714x352.xvid.mp3-snach.avi (Size: 920.23 MB) (Files: 3)

 Peter.Jennings.UFOs.Seeing.Is.Believing.2005.714x352.xvid.mp3-snach.avi

920.23 MB

 Torrent downloaded from Demonoid.com.txt

0.05 KB

 tracked_by_h33t_com.txt

0.02 KB
 

Announce URL: http://tracker.thepiratebay.org:80/announce

Torrent description

--this is my own capture of this show--
Peter Jennings Reporting: UFOs - Seeing Is Believing (2005)


Program Info
Director: Mark Obenhaus
Writer: Mark Obenhaus
Release Date: 24 February 2005 (USA)
Genre: Documentary

ABCNEWS.COM:
The UFO Phenomenon -- Seeing Is Believing
Two-Hour Primetime Special Airs Thursday, Feb. 24 at 8 p.m.

Almost 50 percent of Americans, according to recent polls, and millions of people elsewhere in the world believe that UFOs are real. For many it is a deeply held belief. For decades there have been sightings of UFOs by millions and millions
of people. It is a mystery that only science can solve, and yet the phenomenon remains largely unexamined. Most of the reporting on this subject by the mainstream media holds those who claim to have seen UFOs up to ridicule.

On Feb. 24, "Peter Jennings Reporting: UFOs -- Seeing Is Believing" takes a fresh look at the UFO phenomenon. "As a journalist," says Jennings, "I began this project with a healthy dose of skepticism and as open a mind as possible. After almost 150 interviews with scientists, investigators and with many of those who claim to have witnessed unidentified flying objects, there are important questions that have not been completely answered -- and a great deal not fully explained."

This two-hour primetime special reports on the entire scope of the UFO experience -- from the first famous sighting by Kenneth Arnold in 1947 to the present day. The program draws on interviews with police officers, pilots, military personnel,
scientists and ordinary citizens who give extraordinary accounts of encounters with the unexplained. Also included are the voices of professional skeptics about UFOs, including scientists who are leading the search for life forms beyond Earth elsewhere in the universe.

The program explores the facts behind the enduring mystery of the incident at Roswell, N.M., and looks into the strange stories of alien abductions.

Among the UFO cases presented:
Minot Air Force Base, N.D., October 1968 -- Sixteen airmen on the ground and the crew of an airborne B-52 witness a massive
unidentified object hovering near the base.

Phoenix, March 1997 -- Hundreds witness a huge triangular craft moving slowly over the city.

St. Clair County, Ill., January 2000 -- Police officers in five adjoining towns all independently report witnessing a giant craft with multiple bright lights moving silently across the sky at a very low altitude.

Today if you report a UFO to the U.S. government you will be informed that the Air Force conducted a 22-year investigation that ended in 1969 and concluded that UFOs are not a threat to national security and are of no scientific interest. But as
one of the world's leading theoretical physicists says in the program, "You simply cannot dismiss the possibility that some of these UFO sightings are actually sightings from some object created by ... a civilization perhaps millions of years ahead
of us in technology."

"Peter Jennings Reporting: UFOs -- Seeing Is Believing" is produced by PJ Productions and Springs Media for ABC News. Mark Obenhaus and Tom Yellin are the executive producers.


Video Info
Peter.Jennings.UFOs.Seeing.Is.Believing.2005.714x352.xvid.mp3-snach.avi

Format : AVI
Format/Info : Audio Video Interleave
File size : 920 MiB
Duration : 1h 25mn
Overal bit rate : 1496 Kbps
Writing library : MediaCoder 0.6

Video
Format : MPEG-4 Visual
Format profile : Streaming [email protected]
Format settings, BVOP : Yes
Format settings, QPel : No
Format settings, GMC : No warpoints
Format settings, Matrix : Default
Muxing mode : Packet Bitstream
Codec ID : XVID
Codec ID/Hint : XviD
Duration : 1h 25mn
Bit rate : 1375 Kbps
Width : 714 pixels
Height : 352 pixels
Display aspect ratio : 2.028
Frame rate : 25.000 fps
Resolution : 8 bits
Colorimetry : 4:2:0
Scan type : Progressive
Bits/(Pixel*Frame) : 0.219
Stream size : 845 MiB
Writing library : XviD 1.2.0.dev47 (UTC 2006-11-01)

Audio
Format : MPEG Audio
Format version : Version 1
Format profile : Layer 3
Codec ID : 55
Codec ID/Hint : MP3
Duration : 1h 25mn
Bit rate mode : Constant
Bit rate : 112 Kbps
Channel(s) : 2 channels
Sampling rate : 48.0 KHz
Resolution : 16 bits
Stream size : 68.9 MiB


Trackers (for you to add):
http://tracker.thepiratebay.org:80/announce
http://denis.stalker.h3q.com:6969/announce
http://www.h33t.com:3310/announce
http://inferno.demonoid.com:3402/announce
http://tracker.ConspiracyCentral.net/announce

Visit & Join us at:
http://tracker.ConspiracyCentral.net

Enjoy & Seed!

related torrents

Torrent name

health leech seeds Size
 

comments (0)

Main Menu