Documentary

Paulo Anarkao

  • Download 5x Faster
  • Download torrent
  • Direct Download
  • Rate this torrent +  |  -
Paulo Anarkao

Free and Direct Download with Usenet 300GB+ free


Torrent info

Name:Paulo Anarkao

Total Size: 917.81 MB

Magnet: Magnet Link

Seeds: 0

Leechers: 0

Stream: Watch Online @ Movie4u

Last Updated: 2009-12-05 12:58:08 (Update Now)

Torrent added: 2009-09-01 18:30:24




Torrent Files List


PauloAnarkao.avi (Size: 917.81 MB) (Files: 1)

 PauloAnarkao.avi

917.81 MB
 

Announce URL: http://tpb.tracker.thepiratebay.org:80/announce

Torrent description

Brutal d'Or au dernier festival du Cinémabrut 2008, sélectionné au Festival de Quend du film Grolandais 2008

Premier long métrage en DV 16/9 de Gérald sur son père " Paulo Anarkao ".

L' ayant très peu connu, il décide de le filmer en caméra subjective dans son quotidien durant une petite dizaine de jours...

Paulo Anarkao a pas mal bourlingué, il est passé de balochard à vedette de théâtre de rue pour diverses compagnies comme Crétonart, Turbo Cacahuète...

http://paulo.anarkao.free.fr/

General
Complete name : PauloAnarkao.avi
Format : AVI
Format/Info : Audio Video Interleave
File size : 918 MiB
Duration : 1h 27mn
Overall bit rate : 1 470 Kbps

Video
Format : MPEG-4 Visual
Format settings, BVOP : Yes
Format settings, QPel : No
Format settings, GMC : No warppoints
Format settings, Matrix : Default
Codec ID : DX50
Codec ID/Hint : DivX 5
Duration : 1h 27mn
Bit rate : 1 300 Kbps
Width : 720 pixels
Height : 404 pixels
Display aspect ratio : 16/9
Frame rate : 25.000 fps
Resolution : 24 bits
Colorimetry : 4:2:0
Scan type : Progressive
Bits/(Pixel*Frame) : 0.179
Stream size : 812 MiB (88%)
Writing library : DivX 6.0.0 (UTC 2005-06-15)

Audio
Format : MPEG Audio
Format version : Version 1
Format profile : Layer 3
Codec ID : 55
Codec ID/Hint : MP3
Duration : 1h 27mn
Bit rate mode : Constant
Bit rate : 160 Kbps
Channel(s) : 2 channels
Sampling rate : 48.0 KHz
Resolution : 16 bits
Stream size : 99.9 MiB (11%)
Alignment : Split accross interleaves
Interleave, duration : 40 ms (1.00 video frame)
Interleave, preload duration : 500 ms

related torrents

Torrent name

health leech seeds Size

Paulo Anarkao

0 0 917.81 MB 0
 

comments (0)

Main Menu