Documentary

Murnau The Language of Shadows DVDRip x264

  • Download 5x Faster
  • Download torrent
  • Direct Download
  • Rate this torrent +  |  -
Murnau The Language of Shadows DVDRip x264

Anonymous and Free Direct Download 300GB+


Torrent info

Name:Murnau The Language of Shadows DVDRip x264

Total Size: 348.83 MB

Magnet: Magnet Link

Seeds: 4

Leechers: 2

Stream: Watch Online @ Movie4u

Last Updated: 2010-10-06 03:54:59 (Update Now)

Torrent added: 2009-09-01 17:25:51



VPN For Torrents

Torrent Files List


Murnau.The.Language.of.Shadows.DVDRip.x264.AC3.Eng.mkv (Size: 348.83 MB) (Files: 1)

 Murnau.The.Language.of.Shadows.DVDRip.x264.AC3.Eng.mkv

348.83 MB
 

Announce URL: http://tracker.thepiratebay.org:80/announce

Torrent description

Notice: make sure your PC can play x264 encodes.

Plot: A 52-minute documentary by Luciano Berriatúa which provides a detailed account of the production and explores the filmmakers' involvement in the occult.

Source: Nosferatu The Ultimate Edition

General
Format : Matroska
File size : 349 MiB
Duration : 52mn 36s
Overall bit rate : 927 Kbps
Encoded date : UTC 2009-06-01 13:32:40
Writing application : mkvmerge v2.9.0 ('Moanin'') built on May 22 2009 17:46:31
Writing library : libebml v0.7.7 + libmatroska v0.8.1

Video
ID : 2
Format : AVC
Format/Info : Advanced Video Codec
Format profile : [email protected]
Format settings, CABAC : Yes
Format settings, ReFrames : 8 frames
Muxing mode : Container [email protected]
Codec ID : V_MPEG4/ISO/AVC
Duration : 52mn 33s
Bit rate : 781 Kbps
Nominal bit rate : 797 Kbps
Width : 640 pixels
Height : 432 pixels
Display aspect ratio : 4/3
Frame rate : 29.970 fps
Resolution : 24 bits
Colorimetry : 4:2:0
Scan type : Progressive
Bits/(Pixel*Frame) : 0.094
Stream size : 293 MiB (84%)
Writing library : x264 core 67 r1162M f7bfcfa
Encoding settings : cabac=1 / ref=8 / deblock=1:0:0 / analyse=0x3:0x133 / me=umh / subme=7 / psy_rd=1.0:0.0 / mixed_ref=1 / me_range=16 / chroma_me=1 / trellis=2 / 8x8dct=1 / cqm=0 / deadzone=21,11 / chroma_qp_offset=-4 / threads=3 / nr=0 / decimate=0 / mbaff=0 / bframes=5 / b_pyramid=1 / b_adapt=2 / b_bias=0 / direct=3 / wpredb=1 / keyint=250 / keyint_min=25 / scenecut=40 / rc=2pass / bitrate=797 / ratetol=1.0 / qcomp=0.60 / qpmin=10 / qpmax=51 / qpstep=4 / cplxblur=20.0 / qblur=0.5 / ip_ratio=1.40 / pb_ratio=1.30 / aq=1:1.00 / zones=93730,94608,q=40

Audio
ID : 1
Format : AC-3
Format/Info : Audio Coding 3
Codec ID : A_AC3
Duration : 52mn 36s
Bit rate mode : Constant
Bit rate : 128 Kbps
Channel(s) : 2 channels
Channel positions : L R
Sampling rate : 48.0 KHz
Video delay : 15ms
Stream size : 48.2 MiB (14%)
Language : English

*********************************** FREAKYFLICKS ************************************

'If we all seed just 1:1, give at least what we take, this torrent will NEVER DIE'

related torrents

Torrent name

health leech seeds Size
 


comments (0)

Main Menu